\m/ 80's metal \m/

Информационно-аналитический форум "80 см пыли" (In Search We Trust) "У нас никто никуда не спешит"
Me For You - http://me-4u.com
It is currently 15 Oct 2019

All times are UTC + 3 hours

Spoiler
Chat - temporary registration for foreign users (please leave your application here)







Post new topic Reply to topic  [ 17 posts ] 
Author Message
 
PostPosted: 07 Aug 2011 
Taylan Ayik (Tur)- Yalniz Hayal - 2005 - Heavy Metal

Image

Image

Heavy Metal
Turkey,320k cbr mp3

full covers scan

http://www.multiupload.com/YJY9HJS09J


i m using easy cd-da extrator while i m ripping cd


Top
  
 
 
PostPosted: 07 Aug 2011 
Хиппей (support team)
User avatar
Joined: 30 Jul 2007
Posts: 114829
Lоcаtion: Киев (Kyiv, UA)
Age: 46
Name: Andrey
You can make the album in lossless format ...? :oops:

_________________


Top
 Profile E-mail  
 
 
PostPosted: 07 Aug 2011 
yes i can make it in lossless without cue + log

if you accept of course!!

because i still dont understand how to use EAC?? :cry:


Top
  
 
 
PostPosted: 07 Aug 2011 
Хиппей (support team)
User avatar
Joined: 30 Jul 2007
Posts: 114829
Lоcаtion: Киев (Kyiv, UA)
Age: 46
Name: Andrey
http://blowfish.be/eac :dance:

_________________


Top
 Profile E-mail  
 
 
PostPosted: 07 Aug 2011 
ok if i can , i will send thanks :dance:


Top
  
 
 
PostPosted: 07 Aug 2011 
Хиппей (support team)
User avatar
Joined: 30 Jul 2007
Posts: 114829
Lоcаtion: Киев (Kyiv, UA)
Age: 46
Name: Andrey
Successfully setup the program. If you have any difficulties, you can contact - there is someone to help you :dance:

_________________


Top
 Profile E-mail  
 
 
PostPosted: 08 Aug 2011 
:true: thanks scatter


Top
  
 
 
PostPosted: 08 Aug 2011 
Хиппей (support team)
User avatar
Joined: 30 Jul 2007
Posts: 114829
Lоcаtion: Киев (Kyiv, UA)
Age: 46
Name: Andrey
:arrow: viewtopic.php?f=209&t=1145

Manual... the Russian-English from Oleg spiralarch :dance:

_________________


Top
 Profile E-mail  
 
 
PostPosted: 08 Aug 2011 
ok its coming wav +log +cue :true: :thanx:


Top
  
 
 
PostPosted: 08 Aug 2011 
finally :meloman:

Taylan ayık - yalnız hayal -wav +log +cue.rar (405.98 MB)

http://www.multiupload.com/K6HAQL84M0


Top
  
 
 
PostPosted: 08 Aug 2011 
Хиппей (support team)
User avatar
Joined: 30 Jul 2007
Posts: 114829
Lоcаtion: Киев (Kyiv, UA)
Age: 46
Name: Andrey
О!!!
Ugur, biggest thanks! :true: :thanx:

_________________


Top
 Profile E-mail  
 
 
PostPosted: 08 Aug 2011 
Хиппей (support team)
User avatar
Joined: 30 Jul 2007
Posts: 114829
Lоcаtion: Киев (Kyiv, UA)
Age: 46
Name: Andrey
Ugur, plz, show eac log :pardon:

To check whether you configured the EAC.
I now have no place on your hard drive :fingal: And although others will download and are unlikely to comments :pardon:

_________________


Top
 Profile E-mail  
 
 
PostPosted: 08 Aug 2011 
i have 255 gb free space no problem Scatter :dance:


log1
Exact Audio Copy V1.0 beta 2 from 29. April 2011

EAC extraction logfile from 8. August 2011, 12:22

Taylan Ayık / yalnız hayal

Used drive : Optiarc DVD RW AD-7260S Adapter: 0 ID: 1

Read mode : Secure
Utilize accurate stream : Yes
Defeat audio cache : Yes
Make use of C2 pointers : No

Read offset correction : 48
Overread into Lead-In and Lead-Out : No
Fill up missing offset samples with silence : Yes
Delete leading and trailing silent blocks : No
Null samples used in CRC calculations : Yes
Used interface : Installed external ASPI interface
Gap handling : Not detected, thus appended to previous track

Used output format : User Defined Encoder
Selected bitrate : 1024 kBit/s
Quality : High
Add ID3 tag : No
Command line compressor : C:\Program Files\Exact Audio Copy\Flac\flac.exe


TOC of the extracted CD

Track | Start | Length | Start sector | End sector
---------------------------------------------------------
1 | 0:00.00 | 5:06.28 | 0 | 22977
2 | 5:06.28 | 4:46.07 | 22978 | 44434
3 | 9:52.35 | 3:15.05 | 44435 | 59064
4 | 13:07.40 | 3:46.58 | 59065 | 76072
5 | 16:54.23 | 3:47.32 | 76073 | 93129
6 | 20:41.55 | 4:45.60 | 93130 | 114564
7 | 25:27.40 | 3:56.52 | 114565 | 132316
8 | 29:24.17 | 4:05.01 | 132317 | 150692
9 | 33:29.18 | 3:58.66 | 150693 | 168608
10 | 37:28.09 | 3:34.46 | 168609 | 184704
11 | 41:02.55 | 4:34.05 | 184705 | 205259
12 | 45:36.60 | 3:53.50 | 205260 | 222784


Track 1

Filename C:\Documents and Settings\Owner\Desktop\New Folder (2)\01 Track01.wav

Peak level 100.0 %
Extraction speed 2.6 X
Track quality 100.0 %
Copy CRC 207020E3
Accurately ripped (confidence 2) [603A39A6] (AR v1)
Copy OK

Track 2

Filename C:\Documents and Settings\Owner\Desktop\New Folder (2)\02 Track02.wav

Peak level 100.0 %
Extraction speed 2.7 X
Track quality 100.0 %
Copy CRC 6C25B71B
Accurately ripped (confidence 2) [46CDEF59] (AR v1)
Copy OK

Track 3

Filename C:\Documents and Settings\Owner\Desktop\New Folder (2)\03 Track03.wav

Peak level 99.7 %
Extraction speed 2.8 X
Track quality 100.0 %
Copy CRC BD8C0FDD
Accurately ripped (confidence 2) [73BFDDCE] (AR v1)
Copy OK

Track 4

Filename C:\Documents and Settings\Owner\Desktop\New Folder (2)\04 Track04.wav

Peak level 99.6 %
Extraction speed 3.1 X
Track quality 100.0 %
Copy CRC FA9B23EB
Accurately ripped (confidence 2) [24DAEF86] (AR v1)
Copy OK

Track 5

Filename C:\Documents and Settings\Owner\Desktop\New Folder (2)\05 Track05.wav

Peak level 100.0 %
Extraction speed 2.9 X
Track quality 99.9 %
Copy CRC A64B1E3D
Accurately ripped (confidence 2) [64AF3187] (AR v1)
Copy OK

Track 6

Filename C:\Documents and Settings\Owner\Desktop\New Folder (2)\06 Track06.wav

Peak level 100.0 %
Extraction speed 3.6 X
Track quality 100.0 %
Copy CRC DFF6EE99
Accurately ripped (confidence 2) [48A967C9] (AR v1)
Copy OK

Track 7

Filename C:\Documents and Settings\Owner\Desktop\New Folder (2)\07 Track07.wav

Peak level 71.6 %
Extraction speed 3.3 X
Track quality 99.9 %
Copy CRC B835982F
Accurately ripped (confidence 2) [DBC7230C] (AR v1)
Copy OK

Track 8

Filename C:\Documents and Settings\Owner\Desktop\New Folder (2)\08 Track08.wav

Peak level 100.0 %
Extraction speed 3.5 X
Track quality 99.9 %
Copy CRC 006364BA
Accurately ripped (confidence 2) [C8687B97] (AR v1)
Copy OK

Track 9

Filename C:\Documents and Settings\Owner\Desktop\New Folder (2)\09 Track09.wav

Peak level 100.0 %
Extraction speed 4.1 X
Track quality 100.0 %
Copy CRC 78335704
Accurately ripped (confidence 2) [59E99A43] (AR v1)
Copy OK

Track 10

Filename C:\Documents and Settings\Owner\Desktop\New Folder (2)\10 Track10.wav

Peak level 100.0 %
Extraction speed 4.1 X
Track quality 100.0 %
Copy CRC 483A19EC
Accurately ripped (confidence 2) [76048E71] (AR v1)
Copy OK

Track 11

Filename C:\Documents and Settings\Owner\Desktop\New Folder (2)\11 Track11.wav

Peak level 97.7 %
Extraction speed 4.4 X
Track quality 100.0 %
Copy CRC D6F9374B
Accurately ripped (confidence 2) [7DBF5BEA] (AR v1)
Copy OK

Track 12

Filename C:\Documents and Settings\Owner\Desktop\New Folder (2)\12 Track12.wav

Peak level 95.8 %
Extraction speed 4.4 X
Track quality 100.0 %
Copy CRC 70DB9AF6
Accurately ripped (confidence 2) [C2ED1DA8] (AR v1)
Copy OK


All tracks accurately ripped

No errors occurred

End of status report


log2
Exact Audio Copy V1.0 beta 2 from 29. April 2011

EAC extraction logfile from 8. August 2011, 12:36

Taylan Ayık / yalnız hayal

Used drive : Optiarc DVD RW AD-7260S Adapter: 0 ID: 1

Read mode : Secure
Utilize accurate stream : Yes
Defeat audio cache : Yes
Make use of C2 pointers : No

Read offset correction : 48
Overread into Lead-In and Lead-Out : No
Fill up missing offset samples with silence : Yes
Delete leading and trailing silent blocks : No
Null samples used in CRC calculations : Yes
Used interface : Installed external ASPI interface

Used output format : Internal WAV Routines
Sample format : 44.100 Hz; 16 Bit; Stereo


TOC of the extracted CD

Track | Start | Length | Start sector | End sector
---------------------------------------------------------
1 | 0:00.00 | 5:06.28 | 0 | 22977
2 | 5:06.28 | 4:46.07 | 22978 | 44434
3 | 9:52.35 | 3:15.05 | 44435 | 59064
4 | 13:07.40 | 3:46.58 | 59065 | 76072
5 | 16:54.23 | 3:47.32 | 76073 | 93129
6 | 20:41.55 | 4:45.60 | 93130 | 114564
7 | 25:27.40 | 3:56.52 | 114565 | 132316
8 | 29:24.17 | 4:05.01 | 132317 | 150692
9 | 33:29.18 | 3:58.66 | 150693 | 168608
10 | 37:28.09 | 3:34.46 | 168609 | 184704
11 | 41:02.55 | 4:34.05 | 184705 | 205259
12 | 45:36.60 | 3:53.50 | 205260 | 222784


Range status and errors

Selected range

Filename C:\Documents and Settings\Owner\Desktop\New Folder (2)\Taylan Ayık - yalnız hayal.wav

Peak level 100.0 %
Extraction speed 3.8 X
Range quality 100.0 %
Copy CRC CB492BD9
Copy OK

No errors occurred


AccurateRip summary

Track 1 accurately ripped (confidence 2) [603A39A6] (AR v1)
Track 2 accurately ripped (confidence 2) [46CDEF59] (AR v1)
Track 3 accurately ripped (confidence 2) [73BFDDCE] (AR v1)
Track 4 accurately ripped (confidence 2) [24DAEF86] (AR v1)
Track 5 accurately ripped (confidence 2) [64AF3187] (AR v1)
Track 6 accurately ripped (confidence 2) [48A967C9] (AR v1)
Track 7 accurately ripped (confidence 2) [DBC7230C] (AR v1)
Track 8 accurately ripped (confidence 2) [C8687B97] (AR v1)
Track 9 accurately ripped (confidence 2) [59E99A43] (AR v1)
Track 10 accurately ripped (confidence 2) [76048E71] (AR v1)
Track 11 accurately ripped (confidence 2) [7DBF5BEA] (AR v1)
Track 12 accurately ripped (confidence 2) [C2ED1DA8] (AR v1)

All tracks accurately ripped

End of status report


Top
  
 
 
PostPosted: 08 Aug 2011 
Хиппей (support team)
User avatar
Joined: 30 Jul 2007
Posts: 114829
Lоcаtion: Киев (Kyiv, UA)
Age: 46
Name: Andrey
Nice!!! :true:

Congratulations to a good start :thanx: :dance:

_________________


Top
 Profile E-mail  
 
 
PostPosted: 08 Aug 2011 
Хиппей (support team)
User avatar
Joined: 30 Jul 2007
Posts: 114829
Lоcаtion: Киев (Kyiv, UA)
Age: 46
Name: Andrey
mirror (lossless) : MultiUp l Narod

_________________


Top
 Profile E-mail  
 
 
PostPosted: 23 Jul 2012 
Труъ
User avatar
Joined: 05 Oct 2008
Posts: 194
Lоcаtion: Saint Petersburg
Age: 46
Name: Jesse
БОльшое спасибо за альбом и за зеркало отдельное спасибо Андрею!


Top
 Profile  
 
 
PostPosted: 20 Aug 2012 
Труъ
User avatar
Joined: 05 Oct 2008
Posts: 194
Lоcаtion: Saint Petersburg
Age: 46
Name: Jesse
Приятный альбом. Товарещ Тайлан голосом чем-то на Блеки Лоулеса местами похож.
Вообщем совсем не ожидал ничего подобного услышать, думал будет, как обычно, тупая харда место-кабацкого розлива, а тут всё очень грамотно и приятно для уха получилось.
Ещё раз спасибо за релиз!


Top
 Profile  
 
Display posts from previous:  Sort by  
Post new topic Reply to topic  [ 17 posts ] 

All times are UTC + 3 hours


Who is online

Users browsing this forum: No registered users and 1 guest


You cannot post new topics in this forum
You cannot reply to topics in this forum
You cannot edit your posts in this forum
You cannot delete your posts in this forum
You cannot post attachments in this forum

Search for:
Яндекс.Метрика
Powered by phpBB © 2000, 2002, 2005, 2007 phpBB Group