\m/ 80's metal \m/

Информационно-аналитический форум "80 см пыли" (In Search We Trust) "У нас никто никуда не спешит"
Me For You - http://me-4u.com
It is currently 19 Jul 2019

All times are UTC + 3 hours

Spoiler
Chat - temporary registration for foreign users (please leave your application here)







Post new topic Reply to topic  [ 19 posts ] 

Нужно ли к Лосслесс выкладывать мп3@320?
да 54%  54%  [ 7 ]
нет 15%  15%  [ 2 ]
пофиг 31%  31%  [ 4 ]
Total votes : 13
Author Message
 
PostPosted: 07 May 2011 
хард н хэвщик (support team)
User avatar
Joined: 02 Jun 2008
Posts: 16881
Lоcаtion: Н.Новгород
Age: 32
Name: Артем
Image

Image

Top Heavy - Transparent World - 1997

Tracks:
The Chosen One
The Meridian
Unleash The Nightmare
Window Of My Dreams
Transparent World
Time
Myself
Losing Faith
Lost Nights

Quote:
Wow....what a nice surprise this CD was when I heard it. Released privately by the band in 1997, the vocals jump out immediately in the vein of Kevin Dubrow. The first track, "The Chosen Ones" could easily have appeared on any QUIET RIOT album and no one would have known it was a different band!!! Those great gang style background vocals jumping out at you and the driving sound oozes with powerful, aggressive, heavy-edged melodic metal!! If you are into 80's sounding heavy hard rock with an aggressive sound similiar to HEAVENS EDGE & QUIET RIOT blended with SKID ROW, this is the CD to have in your collection.
22$ seller: screamercd

http://www.youtube.com/watch?v=yLSDXQ-1aWM
http://www.reverbnation.com/play_now/8150057


Top
 Profile  
 
 
PostPosted: 08 May 2011 
Хиппей (support team)
User avatar
Joined: 30 Jul 2007
Posts: 113547
Lоcаtion: Киев (Kyiv, UA)
Age: 46
Name: Andrey
Отличная акустическая баллада :meloman:

_________________


Top
 Profile E-mail  
 
 
PostPosted: 22 Jul 2011 
Работнечег
User avatar
Joined: 28 Aug 2007
Posts: 5919
Lоcаtion: г. Москва
Age: 30
Name: Дима
Image

Style: Heavy Metal
Year: 1997
Label: Self-released
Country: USA
Bitrate: flac + cue + log + covers / mp3@320 + covers
Size: 278 Mb / 194 Mb

Line-Up:
Shawn M. - Vocals
Mitchell Biderman - Drums
Tommy Edraker - Guitar
Robert Ramirez - Bass
Russ Taylor - Guitar


Tracklist:
01. The Chosen One 05:27
02. The Meridian 03:34
03. Unleash The Nightmare 00:47
04. Window Of My Dreams 05:13
05. Transparent World 03:00
06. Time 05:12
07. By Myself 03:46
08. Losing Faith 06:15
09. Lost Nights 05:25

LOG
Exact Audio Copy V0.99 prebeta 5 from 4. May 2009

EAC extraction logfile from 17. July 2011, 11:47

Top Heavy / Transparent World

Used drive : PIONEER DVD-RW DVR-116D Adapter: 0 ID: 0

Read mode : Secure
Utilize accurate stream : Yes
Defeat audio cache : Yes
Make use of C2 pointers : No

Read offset correction : 96
Overread into Lead-In and Lead-Out : No
Fill up missing offset samples with silence : Yes
Delete leading and trailing silent blocks : No
Null samples used in CRC calculations : Yes
Used interface : Native Win32 interface for Win NT & 2000

Used output format : User Defined Encoder
Selected bitrate : 32 kBit/s
Quality : High
Add ID3 tag : No
Command line compressor : C:\Program Files\Exact Audio Copy\Flac\flac.exe
Additional command line options : -6 -V %s


TOC of the extracted CD

Track | Start | Length | Start sector | End sector
---------------------------------------------------------
1 | 0:00.00 | 5:26.60 | 0 | 24509
2 | 5:26.60 | 3:34.00 | 24510 | 40559
3 | 9:00.60 | 0:46.47 | 40560 | 44056
4 | 9:47.32 | 5:12.53 | 44057 | 67509
5 | 15:00.10 | 3:00.20 | 67510 | 81029
6 | 18:00.30 | 5:11.47 | 81030 | 104401
7 | 23:12.02 | 3:46.05 | 104402 | 121356
8 | 26:58.07 | 6:14.73 | 121357 | 149479
9 | 33:13.05 | 5:25.15 | 149480 | 173869


Range status and errors

Selected range

Filename D:\Музыка\Lossless\Top Heavy - Transparent World (1997)\Top Heavy - Transparent World.wav

Peak level 100.0 %
Range quality 99.9 %
Copy CRC 25FA64F8
Copy OK

No errors occurred


AccurateRip summary

Track 1 not present in database
Track 2 not present in database
Track 3 not present in database
Track 4 not present in database
Track 5 not present in database
Track 6 not present in database
Track 7 not present in database
Track 8 not present in database
Track 9 not present in database

None of the tracks are present in the AccurateRip database

End of status report

CUE
REM GENRE "Heavy Metal"
REM DATE 1997
REM DISCID 78090E09
REM COMMENT "ExactAudioCopy v0.99pb5"
PERFORMER "Top Heavy"
TITLE "Transparent World"
FILE "Top Heavy - Transparent World.flac" WAVE
TRACK 01 AUDIO
TITLE "The Chosen One"
PERFORMER "Top Heavy"
INDEX 01 00:00:00
TRACK 02 AUDIO
TITLE "The Meridian"
PERFORMER "Top Heavy"
INDEX 00 05:24:32
INDEX 01 05:26:60
TRACK 03 AUDIO
TITLE "Unleash The Nightmare"
PERFORMER "Top Heavy"
INDEX 00 08:58:40
INDEX 01 09:00:60
TRACK 04 AUDIO
TITLE "Window Of My Dreams"
PERFORMER "Top Heavy"
INDEX 01 09:47:32
TRACK 05 AUDIO
TITLE "Transparent World"
PERFORMER "Top Heavy"
INDEX 00 14:57:17
INDEX 01 15:00:10
TRACK 06 AUDIO
TITLE "Time"
PERFORMER "Top Heavy"
INDEX 00 17:58:07
INDEX 01 18:00:30
TRACK 07 AUDIO
TITLE "By Myself"
PERFORMER "Top Heavy"
INDEX 00 23:10:07
INDEX 01 23:12:02
TRACK 08 AUDIO
TITLE "Losing Earth"
PERFORMER "Top Heavy"
INDEX 00 26:56:60
INDEX 01 26:58:07
TRACK 09 AUDIO
TITLE "Lost Nights"
PERFORMER "Top Heavy"
INDEX 00 33:10:37
INDEX 01 33:13:05


MP3@320 kbps
FLAC

Спасибо за предоставленный диск и возможность рипнуть Саше spryt777. Очень добротный релиз, особенно учитывая дату выпуска) Больше всего понравились Window Of My Dreams, Losing Earth и баллада Transparent World. Остальные песенки тож вполне себе ничего)


Top
 Profile E-mail  
 
 
PostPosted: 22 Jul 2011 
Работнечег
User avatar
Joined: 28 Aug 2007
Posts: 5919
Lоcаtion: г. Москва
Age: 30
Name: Дима
Усё тута


Top
 Profile E-mail  
 
 
PostPosted: 23 Jul 2011 
Хиппей (support team)
User avatar
Joined: 30 Jul 2007
Posts: 113547
Lоcаtion: Киев (Kyiv, UA)
Age: 46
Name: Andrey
Саня, Димка - спасибо! :thanx:

_________________


Top
 Profile E-mail  
 
 
PostPosted: 23 Jul 2011 
Прокъмитолист
User avatar
Joined: 12 Aug 2007
Posts: 6576
Lоcаtion: Санктъ-Петербуркъ
Age: 51
Name: Олекъ
спасибо, парни! :thanx: :true:
мп3 мне пофег... но вы на меня особо не ориентируйтесь :pardon:

_________________
прокъметол - это музыко, от которово есть прок (ы)


Top
 Profile  
 
 
PostPosted: 23 Jul 2011 
Хиппей (support team)
User avatar
Joined: 30 Jul 2007
Posts: 113547
Lоcаtion: Киев (Kyiv, UA)
Age: 46
Name: Andrey
church wrote:
Нужно ли к Лосслесс выкладывать мп3@320?

Эээ, блин, чего-то я поспешил тыкнуть в первую пимпу. Не прочёл полностью опрос. Я за третий вариант, если что :pardon:

_________________


Top
 Profile E-mail  
 
 
PostPosted: 23 Jul 2011 
хард н хэвщик (support team)
User avatar
Joined: 02 Jun 2008
Posts: 16881
Lоcаtion: Н.Новгород
Age: 32
Name: Артем
спасибо, Саня, Димка !!! :true:


Top
 Profile  
 
 
PostPosted: 24 Jul 2011 
udo
User avatar
Joined: 01 Mar 2008
Posts: 2343
Lоcаtion: Краснодар
Age: 48
Name: РОМАН
Саня и Димка спасибо,
хороший получился мр3 - распаковываешь а там альбом и еше один архив , получилось в два раза больше :crazy:


Top
 Profile E-mail  
 
 
PostPosted: 24 Jul 2011 
Работнечег
User avatar
Joined: 28 Aug 2007
Posts: 5919
Lоcаtion: г. Москва
Age: 30
Name: Дима
odu wrote:
Саня и Димка спасибо,
хороший получился мр3 - распаковываешь а там альбом и еше один архив , получилось в два раза больше :crazy:

Ой :crazy:


Top
 Profile E-mail  
 
 
PostPosted: 24 Jul 2011 
Хиппей (support team)
User avatar
Joined: 30 Jul 2007
Posts: 113547
Lоcаtion: Киев (Kyiv, UA)
Age: 46
Name: Andrey
Не качайте мп3 :crazy:

_________________


Top
 Profile E-mail  
 
 
PostPosted: 03 Aug 2011 
ТрэшЭрос
User avatar
Joined: 18 Jul 2011
Posts: 2303
Lоcаtion: Гулькевичи
Age: 44
Name: Александр
Откажитесь от МРа3и!!! Даёжж :losik: :losik: :losik:

_________________
Thrash no trash!!!


Top
 Profile E-mail  
 
 
PostPosted: 27 Nov 2013 
Хиппей (support team)
User avatar
Joined: 30 Jul 2007
Posts: 113547
Lоcаtion: Киев (Kyiv, UA)
Age: 46
Name: Andrey
Только сейчас объединил обе темки и подобрался к альбому... :oops:

_________________


Top
 Profile E-mail  
 
 
PostPosted: 27 Nov 2013 
\m/ 80 см сала \m/
User avatar
Joined: 12 Mar 2012
Posts: 2590
Age: 26
Name: Nick
:thanx:

_________________
1990 AUROPHON BRAINSTORM (Germany) - lossless
1994 MAUSOLEUM CLASSIX (Belgium-Germany) - lossless
1998 VA - GRIM HARVEST - Complete Metal Massacre Volumes I-XII


Top
 Profile  
 
 
PostPosted: 27 Nov 2013 
Хиппей (support team)
User avatar
Joined: 30 Jul 2007
Posts: 113547
Lоcаtion: Киев (Kyiv, UA)
Age: 46
Name: Andrey
ImageImageImage

ImageImageImage

mirror: Narod l M-Cloud

Не помню уж, как звучат Quiet Riot, явно весело и задорно, как и эта группа.
Но вокалиста здесь точно нужно пожалеть, ибо поёт он в нос, гнусавит, пытается иногда и глэмствовать и даже косить под Кинга Даймонда или хотя бы Эксла Роуза, но всё равно получается ржачная фигня.
Впрочем, спасает сама музыка и настрой коллектива :dance:

_________________


Top
 Profile E-mail  
 
 
PostPosted: 27 Nov 2013 
Я набрал 1000 сообщений!
User avatar
Joined: 22 Jun 2011
Posts: 1457
Lоcаtion: Украина, Донецк.
Age: 49
Name: Сергей
мой плеер флацы не понимает. :fingal: а с кампуцкера всё слушать - это больше ни на что времени не будет... :nea:


Top
 Profile E-mail  
 
 
PostPosted: 27 Nov 2013 
Хиппей (support team)
User avatar
Joined: 30 Jul 2007
Posts: 113547
Lоcаtion: Киев (Kyiv, UA)
Age: 46
Name: Andrey
st.Gun wrote:
мой плеер флацы не понимает.

Скачивем масюсеньку софтинку, за пару секунд переводим флацк в вавы и слухаем http://sourceforge.net/projects/flacfrontend :meloman:

_________________


Top
 Profile E-mail  
 
 
PostPosted: 27 Nov 2013 
Я набрал 1000 сообщений!
User avatar
Joined: 22 Jun 2011
Posts: 1457
Lоcаtion: Украина, Донецк.
Age: 49
Name: Сергей
так... чего он такой крупненький получился! :shok: флац был 325, вав стал 452. качество звучания покращилось?


Top
 Profile E-mail  
 
 
PostPosted: 28 Nov 2013 
Хиппей (support team)
User avatar
Joined: 30 Jul 2007
Posts: 113547
Lоcаtion: Киев (Kyiv, UA)
Age: 46
Name: Andrey
st.Gun wrote:
флац был 325, вав стал 452. качество звучания покращилось?

Flac - ужатый беспотерьный формат. Wav же не ужатый. Всё просто =) Качество и там и сям идентичное осталось :pardon:

_________________


Top
 Profile E-mail  
 
Display posts from previous:  Sort by  
Post new topic Reply to topic  [ 19 posts ] 

All times are UTC + 3 hours


Who is online

Users browsing this forum: No registered users and 1 guest


You cannot post new topics in this forum
You cannot reply to topics in this forum
You cannot edit your posts in this forum
You cannot delete your posts in this forum
You cannot post attachments in this forum

Search for:
Яндекс.Метрика
Powered by phpBB © 2000, 2002, 2005, 2007 phpBB Group