\m/ 80's metal \m/

Информационно-аналитический форум "80 см пыли" (In Search We Trust) "У нас никто никуда не спешит"
Me For You - http://me-4u.com
It is currently 21 Jul 2019

All times are UTC + 3 hours

Spoiler
Chat - temporary registration for foreign users (please leave your application here)







Post new topic Reply to topic  [ 7 posts ] 
Author Message
 
PostPosted: 19 Jun 2011 
Генеральный thrasher
User avatar
Joined: 03 Oct 2008
Posts: 3714
Lоcаtion: Ханты-Мансийский АО
Age: 44
Name: Сергей
Image

Year:1991
Style:Thrash Metal
Country:Brazil
Audio:Ape+Cue+Scans (Vynil Rip)
Size:320Mb
Source:deathcrush
Label:Cogumelo Records

Line-Up:
Jairo Guedz - guitar,acoustic guitar
Vladimir Korg - all vocals
Marcello Diaz - bass,keyboards
Christiano Salles - drums

Tracklist:
1.God of Black and White Images
2.Scarecrow
3.Peter Pan Against the World
4.Falling Into My Inner Abyss
5.The Hangman Tree - Act One
6.The Hell Where Angels Live/My Life is an Eternal Dark Room/My Pain
7.The Hangman Tree - Epilogue
8.Broken Toys
9.Leave Me Alone

Spectrum
Image

Tracks
Image

Frequency
Image

Cue
REM GENRE "Thrash Metal"
REM DATE 1991
REM DISCID 72099009
REM COMMENT "ExactAudioCopy v0.99pb4"
PERFORMER "The Mist"
TITLE "The Hangman Tree"
FILE "The Mist - The Hangman Tree.wav" WAVE
TRACK 01 AUDIO
TITLE "God Of Black And White Images"
PERFORMER "The Mist"
INDEX 01 00:00:00
TRACK 02 AUDIO
TITLE "Scarecrow"
PERFORMER "The Mist"
INDEX 01 05:34:37
TRACK 03 AUDIO
TITLE "Peter Pan Against The World"
PERFORMER "The Mist"
INDEX 01 09:53:39
TRACK 04 AUDIO
TITLE "Falling Into My Inner Abyss"
PERFORMER "The Mist"
INDEX 01 14:22:59
TRACK 05 AUDIO
TITLE "The Hangman Tree - Act I"
PERFORMER "The Mist"
INDEX 00 18:20:00
INDEX 01 18:20:01
TRACK 06 AUDIO
TITLE "The Hell Where Angels Live"
PERFORMER "The Mist"
INDEX 01 22:15:13
TRACK 07 AUDIO
TITLE "The Hangman Tree - Epilogue"
PERFORMER "The Mist"
INDEX 01 28:55:04
TRACK 08 AUDIO
TITLE "Broken Toys"
PERFORMER "The Mist"
INDEX 00 32:38:58
INDEX 01 32:38:60
TRACK 09 AUDIO
TITLE "Leave Me Alone"
PERFORMER "The Mist"
INDEX 01 37:08:30


The Hangman Tree


Top
 Profile  
 
 
PostPosted: 19 Jun 2011 
Генеральный thrasher
User avatar
Joined: 03 Oct 2008
Posts: 3714
Lоcаtion: Ханты-Мансийский АО
Age: 44
Name: Сергей
Просьба не выкладывать на торрентах...


Top
 Profile  
 
 
PostPosted: 19 Jun 2011 
Я набрал 1000 сообщений!
User avatar
Joined: 25 Dec 2008
Posts: 1545
Age: 43
Name: Павел
Сергей, спасибо! Но форум окрытый, поэтому твою просьбу скорее всего проигнорируют - практически все отсюда попадает на рутрэкер. :pardon:


Top
 Profile  
 
 
PostPosted: 19 Jun 2011 
Работнечег
User avatar
Joined: 28 Aug 2007
Posts: 5919
Lоcаtion: г. Москва
Age: 30
Name: Дима
Спасибо, Серёг! Кажется слушал этот альбом но очень давно, надо бы освежить воспоминания! :crazy:


Top
 Profile E-mail  
 
 
PostPosted: 19 Jun 2011 
Генеральный thrasher
User avatar
Joined: 03 Oct 2008
Posts: 3714
Lоcаtion: Ханты-Мансийский АО
Age: 44
Name: Сергей
hawkhunter wrote:
Сергей, спасибо! Но форум окрытый, поэтому твою просьбу скорее всего проигнорируют - практически все отсюда попадает на рутрэкер. :pardon:


Ну и хрен с ними...


Top
 Profile  
 
 
PostPosted: 23 Jun 2011 
Хиппей (support team)
User avatar
Joined: 30 Jul 2007
Posts: 113573
Lоcаtion: Киев (Kyiv, UA)
Age: 46
Name: Andrey
Серёж, спасибо! :thanx: Только добрался до 12-й странички на форуме... :oops:

mirror: MultiUp l Narod

_________________


Top
 Profile E-mail  
 
 
PostPosted: 07 Aug 2011 
ТрэшЭрос
User avatar
Joined: 18 Jul 2011
Posts: 2303
Lоcаtion: Гулькевичи
Age: 44
Name: Александр
Спасибочко :thanx: :true:

Хто-нить мае "Phantasmagoria" 1989 и "Ashes to Ashes, Dust to Dust" 1993???

_________________
Thrash no trash!!!


Top
 Profile E-mail  
 
Display posts from previous:  Sort by  
Post new topic Reply to topic  [ 7 posts ] 

All times are UTC + 3 hours


Who is online

Users browsing this forum: No registered users and 1 guest


You cannot post new topics in this forum
You cannot reply to topics in this forum
You cannot edit your posts in this forum
You cannot delete your posts in this forum
You cannot post attachments in this forum

Search for:
Яндекс.Метрика
Powered by phpBB © 2000, 2002, 2005, 2007 phpBB Group