\m/ 80's metal \m/

Информационно-аналитический форум "80 см пыли" (In Search We Trust) "У нас никто никуда не спешит"
Me For You - http://me-4u.com
It is currently 18 Jul 2019

All times are UTC + 3 hours

Spoiler
Chat - temporary registration for foreign users (please leave your application here)







Post new topic Reply to topic  [ 17 posts ] 
Author Message
 
PostPosted: 03 May 2011 
хард н хэвщик (support team)
User avatar
Joined: 02 Jun 2008
Posts: 16881
Lоcаtion: Н.Новгород
Age: 32
Name: Артем
однажды мы уже искали тундру, теперь поищем тайгу :crazy:

Image Image Image
Taiga (US) - Leave This Chapter Out (19xx)
Catamount

Here we have one of the true gems of the hair band years. This is a brilliant six-song demo cassette from of all places, Iowa. THAT is why you never heard of these guys. They look like Danger Danger did 20 years ago, and their sound is sometimes in the vein of early Poison, and sometimes moving closer to Hurricane or Keel. Either way, it's a true gem that is not only incredibly rare, but is also incredibly GOOD. Don't miss out.

1. Playin That Rock N roll
2. Leave This Chapter Out
3. Nightmares
4. Satisfy My Appetite
5. Soap Opera Blues
6. Baby Don't Go

ebay 10$ seller: http://www.heavymetalmuseum.com

http://www.catamountrecording.com/CLIENTS2.HTML
затравочка для Сереги Сплэтти: http://www.youtube.com/watch?v=yvBTMnrrwiE :umnik:


Top
 Profile  
 
 
PostPosted: 05 May 2011 
Хиппей (support team)
User avatar
Joined: 30 Jul 2007
Posts: 113537
Lоcаtion: Киев (Kyiv, UA)
Age: 46
Name: Andrey
phpBB [youtube]


Отправил в личку писульку... :oops:

_________________


Top
 Profile E-mail  
 
 
PostPosted: 03 Jul 2018 
Rara avis
User avatar
Joined: 27 Jan 2009
Posts: 5160
Name: .
Как написать бассисту? https://plus.google.com/107208908247568076143


Top
 Profile E-mail  
 
 
PostPosted: 13 Jul 2018 
Работнечег
User avatar
Joined: 28 Aug 2007
Posts: 5919
Lоcаtion: г. Москва
Age: 30
Name: Дима
Нажми на само имя Greg Frederick, там будет Начать чат, электронная почта и т.д.


Top
 Profile E-mail  
 
 
PostPosted: 13 Jul 2018 
Работнечег
User avatar
Joined: 28 Aug 2007
Posts: 5919
Lоcаtion: г. Москва
Age: 30
Name: Дима
У меня правда всё равно ошибку выдает, так ничего и не получилось ни с компа, ни с телефона.


Top
 Profile E-mail  
 
 
PostPosted: 01 Aug 2018 
Хиппей (support team)
User avatar
Joined: 30 Jul 2007
Posts: 113537
Lоcаtion: Киев (Kyiv, UA)
Age: 46
Name: Andrey
А вы через винду заходите туды, или через ведроид? Через комп действительно не получается :lloo: http://prntscr.com/kdbztf
Ща попробую через андроид.

_________________


Top
 Profile E-mail  
 
 
PostPosted: 13 Aug 2018 
Работнечег
User avatar
Joined: 28 Aug 2007
Posts: 5919
Lоcаtion: г. Москва
Age: 30
Name: Дима
Я пробовал и тоже не вышло ((


Top
 Profile E-mail  
 
 
PostPosted: 15 Aug 2018 
Хиппей (support team)
User avatar
Joined: 30 Jul 2007
Posts: 113537
Lоcаtion: Киев (Kyiv, UA)
Age: 46
Name: Andrey
Scatterbrain wrote:
Ща попробую через андроид

Аналогично - ничо не действует :vic:

_________________


Top
 Profile E-mail  
 
 
PostPosted: 03 Apr 2019 
Работнечег
User avatar
Joined: 28 Aug 2007
Posts: 5919
Lоcаtion: г. Москва
Age: 30
Name: Дима
Taiga - (1989) - Leave This Chapter Out (Demo)

Image

Format: FLAC + CUE + LOG + covers
Label: Self Released
Size: 638 Mb

Line-Up:
Kevin Slinger - Lead Vocals
Doug Frederick - Guitars and Vocals
Greg Frederick - Bass and Vocals
Rob Hughes - Drums


Tracklist:
Side A
1. Playin That Rock N roll
2. Leave This Chapter Out
3. Nightmares
4. Satisfy My Appetite
5. Soap Opera Blues
6. Baby Don't Go

Side B
1. Playin That Rock N roll
2. Leave This Chapter Out
3. Nightmares
4. Satisfy My Appetite
5. Soap Opera Blues
6. Baby Don't Go

Side A CUE
REM GENRE "Rock"
REM DATE 199x
PERFORMER "Taiga"
TITLE "Leave This Chapter Out (Demo)"
FILE "01. side 1.flac" WAVE
TRACK 01 AUDIO
TITLE "Playin' That Rock 'N' Roll"
PERFORMER "Taiga"
INDEX 01 00:00:00
TRACK 02 AUDIO
TITLE "Leave This Chapter Out"
PERFORMER "Taiga"
INDEX 01 03:28:40
TRACK 03 AUDIO
TITLE "Nightmares"
PERFORMER "Taiga"
INDEX 01 06:51:50
TRACK 04 AUDIO
TITLE "Satisfy My Appetite"
PERFORMER "Taiga"
INDEX 01 12:07:39
TRACK 05 AUDIO
TITLE "Soap Opera Blues"
PERFORMER "Taiga"
INDEX 01 16:10:22
TRACK 06 AUDIO
TITLE "Baby Don't Go"
PERFORMER "Taiga"
INDEX 01 19:20:36

Side B CUE
REM GENRE "Rock"
REM DATE 199x
PERFORMER "Taiga"
TITLE "Leave This Chapter Out (Demo)"
FILE "02. side 2.flac" WAVE
TRACK 01 AUDIO
TITLE "Playin' That Rock 'N' Roll"
PERFORMER "Taiga"
INDEX 01 00:00:00
TRACK 02 AUDIO
TITLE "Leave This Chapter Out"
PERFORMER "Taiga"
INDEX 01 03:30:09
TRACK 03 AUDIO
TITLE "Nightmares"
PERFORMER "Taiga"
INDEX 01 06:53:02
TRACK 04 AUDIO
TITLE "Satisfy My Appetite"
PERFORMER "Taiga"
INDEX 01 12:09:17
TRACK 05 AUDIO
TITLE "Soap Opera Blues"
PERFORMER "Taiga"
INDEX 01 16:11:29
TRACK 06 AUDIO
TITLE "Baby Don't Go"
PERFORMER "Taiga"
INDEX 01 19:23:72


Yadi

За предоставленную кассету спасибо огромное Робу Хьюзу, а за оцифровку как обычно все благодарности Лёне! :thanx:


Top
 Profile E-mail  
 
 
PostPosted: 03 Apr 2019 
Rara avis
User avatar
Joined: 27 Jan 2009
Posts: 5160
Name: .
О как круто! :true: :true: :true:
Огромное спасибо, Дима!!! :thanx:


Top
 Profile E-mail  
 
 
PostPosted: 03 Apr 2019 
хард н хэвщик (support team)
User avatar
Joined: 02 Jun 2008
Posts: 16881
Lоcаtion: Н.Новгород
Age: 32
Name: Артем
Вот это подгончик. Спасибище, Дима, Лёня :true:


Top
 Profile  
 
 
PostPosted: 05 Apr 2019 
Прокъмитолист
User avatar
Joined: 12 Aug 2007
Posts: 6574
Lоcаtion: Санктъ-Петербуркъ
Age: 51
Name: Олекъ
Тёма? :shok: привет, дружище :lob:

_________________
прокъметол - это музыко, от которово есть прок (ы)


Top
 Profile  
 
 
PostPosted: 05 Apr 2019 
Хиппей (support team)
User avatar
Joined: 30 Jul 2007
Posts: 113537
Lоcаtion: Киев (Kyiv, UA)
Age: 46
Name: Andrey
:thanx:

mirror: Uloz l Uloz l Narod l M-Cloud

_________________


Top
 Profile E-mail  
 
 
PostPosted: 09 Apr 2019 
Хиппей (support team)
User avatar
Joined: 30 Jul 2007
Posts: 113537
Lоcаtion: Киев (Kyiv, UA)
Age: 46
Name: Andrey
Отличная, кстати, демка получилась у ребяток :lob: :lob: :lob:

Добротный активный молодёжный хард-рок на грани хардынхэви :meloman:


7/10

_________________


Top
 Profile E-mail  
 
 
PostPosted: 09 Apr 2019 
Хиппей (support team)
User avatar
Joined: 30 Jul 2007
Posts: 113537
Lоcаtion: Киев (Kyiv, UA)
Age: 46
Name: Andrey
Ага, и этот топик переносится в "Бухту" :kro:

_________________


Top
 Profile E-mail  
 
 
PostPosted: 09 Apr 2019 
5-speed satisfactor
User avatar
Joined: 16 Feb 2009
Posts: 3738
Lоcаtion: New York, USA
Age: 41
Name: Leonid
Отличная, кстати, демка получилась у ребяток :lob: :lob: :lob:

Добротный активный молодёжный хард-рок на грани хардынхэви :meloman:


7/10


Г0вн0!

_________________
Death rules! Metal to all who oppose!


Top
 Profile  
 
 
PostPosted: 09 Apr 2019 
Хиппей (support team)
User avatar
Joined: 30 Jul 2007
Posts: 113537
Lоcаtion: Киев (Kyiv, UA)
Age: 46
Name: Andrey
А балладка так ваще ми-ми-ми :meloman: :meloman: :meloman:

_________________


Top
 Profile E-mail  
 
Display posts from previous:  Sort by  
Post new topic Reply to topic  [ 17 posts ] 

All times are UTC + 3 hours


Who is online

Users browsing this forum: No registered users and 2 guests


You cannot post new topics in this forum
You cannot reply to topics in this forum
You cannot edit your posts in this forum
You cannot delete your posts in this forum
You cannot post attachments in this forum

Search for:
Яндекс.Метрика
Powered by phpBB © 2000, 2002, 2005, 2007 phpBB Group