\m/ 80's metal \m/

Информационно-аналитический форум "80 см пыли" (In Search We Trust) "У нас никто никуда не спешит"
Me For You - http://me-4u.com
It is currently 20 Jul 2019

All times are UTC + 3 hours

Spoiler
Chat - temporary registration for foreign users (please leave your application here)







Post new topic Reply to topic  [ 2 posts ] 
Author Message
 
PostPosted: 24 Apr 2011 
Работнечег
User avatar
Joined: 28 Aug 2007
Posts: 5919
Lоcаtion: г. Москва
Age: 30
Name: Дима
Image
Band: TSA
Album: Live
Label: A.A.MTJ
Genre: Heavy Metal
Coutry: Poland
Format: Flac + Log + Cue + Covers
Size: 311 Mb

Line-up:
Marek Piekarczyk - Vocals
Andrzej Nowak - Guitar
Stefan Machel - Guitar
Janusz Niekrasz - Bass
Marek Kap³on - Drums


Tracklist:
1. Manekin Disco 04:45
2. Sp�ka 04:02
3. Wyprzeda� 03:34
4. 51 07:08
5. Plan �ycia 02:47
6. Chodz� Ludzie 05:10
7. Wpadka 03:22
8. Mass Media 03:39
9. TSA-Rock 05:17
10. Zwierzenia Kontestatora 04:45

LOG
Exact Audio Copy V0.99 prebeta 5 from 4. May 2009

EAC extraction logfile from 19. April 2011, 18:22

TSA / Live

Used drive : PIONEER DVD-RW DVR-116D Adapter: 0 ID: 0

Read mode : Secure
Utilize accurate stream : Yes
Defeat audio cache : Yes
Make use of C2 pointers : No

Read offset correction : 96
Overread into Lead-In and Lead-Out : No
Fill up missing offset samples with silence : Yes
Delete leading and trailing silent blocks : No
Null samples used in CRC calculations : Yes
Used interface : Native Win32 interface for Win NT & 2000

Used output format : User Defined Encoder
Selected bitrate : 32 kBit/s
Quality : High
Add ID3 tag : No
Command line compressor : C:\Program Files\Exact Audio Copy\Flac\flac.exe
Additional command line options : -6 -V %s


TOC of the extracted CD

Track | Start | Length | Start sector | End sector
---------------------------------------------------------
1 | 0:00.00 | 4:46.33 | 0 | 21482
2 | 4:46.33 | 4:02.55 | 21483 | 39687
3 | 8:49.13 | 3:35.00 | 39688 | 55812
4 | 12:24.13 | 7:08.41 | 55813 | 87953
5 | 19:32.54 | 2:47.03 | 87954 | 100481
6 | 22:19.57 | 5:10.13 | 100482 | 123744
7 | 27:29.70 | 3:23.00 | 123745 | 138969
8 | 30:52.70 | 3:39.26 | 138970 | 155420
9 | 34:32.21 | 5:17.12 | 155421 | 179207


Range status and errors

Selected range

Filename D:\Музыка\Lossless\TSA - Live (1983)(Reissued In 2003)\TSA - Live.wav

Peak level 100.0 %
Range quality 100.0 %
Copy CRC 97527C8A
Copy OK

No errors occurred


AccurateRip summary

Track 1 not present in database
Track 2 not present in database
Track 3 not present in database
Track 4 not present in database
Track 5 not present in database
Track 6 not present in database
Track 7 not present in database
Track 8 not present in database
Track 9 not present in database

None of the tracks are present in the AccurateRip database

End of status report

CUE
REM GENRE "Heavy Metal"
REM DATE 1983
REM DISCID 70095509
REM COMMENT "ExactAudioCopy v0.99pb5"
PERFORMER "TSA"
TITLE "Live"
FILE "TSA - Live.flac" WAVE
TRACK 01 AUDIO
TITLE "Manekin Disco"
PERFORMER "TSA"
INDEX 01 00:00:00
TRACK 02 AUDIO
TITLE "Spуіka"
PERFORMER "TSA"
INDEX 01 04:46:33
TRACK 03 AUDIO
TITLE "Wyprzedaї"
PERFORMER "TSA"
INDEX 01 08:49:13
TRACK 04 AUDIO
TITLE "51"
PERFORMER "TSA"
INDEX 01 12:24:13
TRACK 05 AUDIO
TITLE "Plan Zycia"
PERFORMER "TSA"
INDEX 01 19:32:54
TRACK 06 AUDIO
TITLE "Chodza Ludzie"
PERFORMER "TSA"
INDEX 01 22:19:57
TRACK 07 AUDIO
TITLE "Wpadka"
PERFORMER "TSA"
INDEX 01 27:29:70
TRACK 08 AUDIO
TITLE "Mass Media"
PERFORMER "TSA"
INDEX 01 30:52:70
TRACK 09 AUDIO
TITLE "TSA Rock"
PERFORMER "TSA"
INDEX 01 34:32:21


Narod.Ru


Top
 Profile E-mail  
 
 
PostPosted: 27 Apr 2011 
Хиппей (support team)
User avatar
Joined: 30 Jul 2007
Posts: 113561
Lоcаtion: Киев (Kyiv, UA)
Age: 46
Name: Andrey
:thanx:
mirror: MultiUp l Narod

_________________


Top
 Profile E-mail  
 
Display posts from previous:  Sort by  
Post new topic Reply to topic  [ 2 posts ] 

All times are UTC + 3 hours


Who is online

Users browsing this forum: No registered users and 4 guests


You cannot post new topics in this forum
You cannot reply to topics in this forum
You cannot edit your posts in this forum
You cannot delete your posts in this forum
You cannot post attachments in this forum

Search for:
Яндекс.Метрика
Powered by phpBB © 2000, 2002, 2005, 2007 phpBB Group