\m/ 80's metal \m/

Информационно-аналитический форум "80 см пыли" (In Search We Trust) "У нас никто никуда не спешит"
Me For You - http://me-4u.com
It is currently 23 Jul 2019

All times are UTC + 3 hours

Spoiler
Chat - temporary registration for foreign users (please leave your application here)







Post new topic Reply to topic  [ 57 posts ]  Go to page 1, 2, 3  Next
Author Message
 
PostPosted: 28 Mar 2011 
5-speed satisfactor
User avatar
Joined: 16 Feb 2009
Posts: 3738
Lоcаtion: New York, USA
Age: 41
Name: Leonid
Берите, пока есть, компрессуйте в лося, зеркальте и оформляйте. Tyrant - Mean Machine первопресс:

http://megaupload.com?d=OXQVS80G

Спасибо Роду, владельцу официального сайта Living Death, который сделал мне такой пыдарунок.

Log:
Exact Audio Copy V1.0 beta 1 from 15. November 2010

EAC extraction logfile from 26. March 2011, 9:02

Unknown Artist / Unknown Title

Used drive : TSSTcorpCD/DVDW TS-L632D Adapter: 1 ID: 0

Read mode : Secure
Utilize accurate stream : Yes
Defeat audio cache : Yes
Make use of C2 pointers : No

Read offset correction : 6
Overread into Lead-In and Lead-Out : No
Fill up missing offset samples with silence : Yes
Delete leading and trailing silent blocks : No
Null samples used in CRC calculations : No
Used interface : Native Win32 interface for Win NT & 2000

Used output format : Internal WAV Routines
Sample format : 44.100 Hz; 16 Bit; Stereo


TOC of the extracted CD

Track | Start | Length | Start sector | End sector
---------------------------------------------------------
1 | 0:00.33 | 3:36.30 | 33 | 16262
2 | 3:36.63 | 3:17.55 | 16263 | 31092
3 | 6:54.43 | 3:39.12 | 31093 | 47529
4 | 10:33.55 | 4:15.20 | 47530 | 66674
5 | 14:49.00 | 3:32.00 | 66675 | 82574
6 | 18:21.00 | 4:04.45 | 82575 | 100919
7 | 22:25.45 | 2:24.05 | 100920 | 111724
8 | 24:49.50 | 4:09.33 | 111725 | 130432
9 | 28:59.08 | 5:58.22 | 130433 | 157304
10 | 34:57.30 | 2:29.00 | 157305 | 168479


Range status and errors

Selected range

Filename C:\Users\Diana\Documents\Tyrant - Mean Machine.wav

Peak level 75.0 %
Extraction speed 0.1 X
Range quality 99.9 %
Test CRC 8657537F
Copy CRC 8657537F
Copy OK

No errors occurred


AccurateRip summary

Track 1 accurately ripped (confidence 1) [80E5ECDA]
Track 2 accurately ripped (confidence 1) [3F78C2A0]
Track 3 accurately ripped (confidence 1) [76FD0E90]
Track 4 accurately ripped (confidence 1) [B9859D60]
Track 5 accurately ripped (confidence 1) [A6B57568]
Track 6 accurately ripped (confidence 1) [347D42CE]
Track 7 accurately ripped (confidence 1) [4BE203FB]
Track 8 accurately ripped (confidence 1) [E31206F1]
Track 9 accurately ripped (confidence 1) [AEC4AAC2]
Track 10 accurately ripped (confidence 1) [3BCE1BE6]

All tracks accurately ripped

End of status report

------------------------------------------------------------

Exact Audio Copy V1.0 beta 1 from 15. November 2010

EAC extraction logfile from 26. March 2011, 9:02

Unknown Artist / Unknown Title

Used drive : TSSTcorpCD/DVDW TS-L632D Adapter: 1 ID: 0

Read mode : Secure
Utilize accurate stream : Yes
Defeat audio cache : Yes
Make use of C2 pointers : No

Read offset correction : 6
Overread into Lead-In and Lead-Out : No
Fill up missing offset samples with silence : Yes
Delete leading and trailing silent blocks : No
Null samples used in CRC calculations : No
Used interface : Native Win32 interface for Win NT & 2000

Used output format : Internal WAV Routines
Sample format : 44.100 Hz; 16 Bit; Stereo


TOC of the extracted CD

Track | Start | Length | Start sector | End sector
---------------------------------------------------------
1 | 0:00.33 | 3:36.30 | 33 | 16262
2 | 3:36.63 | 3:17.55 | 16263 | 31092
3 | 6:54.43 | 3:39.12 | 31093 | 47529
4 | 10:33.55 | 4:15.20 | 47530 | 66674
5 | 14:49.00 | 3:32.00 | 66675 | 82574
6 | 18:21.00 | 4:04.45 | 82575 | 100919
7 | 22:25.45 | 2:24.05 | 100920 | 111724
8 | 24:49.50 | 4:09.33 | 111725 | 130432
9 | 28:59.08 | 5:58.22 | 130433 | 157304
10 | 34:57.30 | 2:29.00 | 157305 | 168479


Range status and errors

Selected range

Filename C:\Users\Diana\Documents\Tyrant - Mean Machine.wav

Peak level 75.0 %
Extraction speed 0.1 X
Range quality 99.9 %
Test CRC 8657537F
Copy CRC 8657537F
Copy OK

No errors occurred


AccurateRip summary

Track 1 accurately ripped (confidence 1) [80E5ECDA]
Track 2 accurately ripped (confidence 1) [3F78C2A0]
Track 3 accurately ripped (confidence 1) [76FD0E90]
Track 4 accurately ripped (confidence 1) [B9859D60]
Track 5 accurately ripped (confidence 1) [A6B57568]
Track 6 accurately ripped (confidence 1) [347D42CE]
Track 7 accurately ripped (confidence 1) [4BE203FB]
Track 8 accurately ripped (confidence 1) [E31206F1]
Track 9 accurately ripped (confidence 1) [AEC4AAC2]
Track 10 accurately ripped (confidence 1) [3BCE1BE6]

All tracks accurately ripped

End of status report

_________________
Death rules! Metal to all who oppose!


Last edited by metaleonid on 29 Mar 2011, edited 2 times in total.

Top
 Profile  
 
 
PostPosted: 28 Mar 2011 
5-speed satisfactor
User avatar
Joined: 16 Feb 2009
Posts: 3738
Lоcаtion: New York, USA
Age: 41
Name: Leonid
cue:
REM GENRE "Heavy Metal"
REM DATE 1984
REM DISCID 7C08C60A
REM COMMENT "ExactAudioCopy v1.0b1"
PERFORMER "Tyrant"
TITLE "Mean Machine"
FILE "Tyrant - Mean Machine.wav" WAVE
TRACK 01 AUDIO
TITLE "Free For All"
PERFORMER "Tyrant"
INDEX 00 00:00:00
INDEX 01 00:00:33
TRACK 02 AUDIO
TITLE "We Stay Free"
PERFORMER "Tyrant"
INDEX 00 03:36:09
INDEX 01 03:36:63
TRACK 03 AUDIO
TITLE "Wanna Make Love"
PERFORMER "Tyrant"
INDEX 00 06:53:18
INDEX 01 06:54:43
TRACK 04 AUDIO
TITLE "Ready For Love"
PERFORMER "Tyrant"
INDEX 00 10:31:63
INDEX 01 10:33:55
TRACK 05 AUDIO
TITLE "Making Noise And Drinking Beer"
PERFORMER "Tyrant"
INDEX 00 14:48:25
INDEX 01 14:49:00
TRACK 06 AUDIO
TITLE "Tyrant"
PERFORMER "Tyrant"
INDEX 00 18:19:58
INDEX 01 18:21:00
TRACK 07 AUDIO
TITLE "Invaders"
PERFORMER "Tyrant"
INDEX 00 22:24:53
INDEX 01 22:25:45
TRACK 08 AUDIO
TITLE "Grapes Of Wrath"
PERFORMER "Tyrant"
INDEX 00 24:48:35
INDEX 01 24:49:50
TRACK 09 AUDIO
TITLE "Blood Suckin' Woman"
PERFORMER "Tyrant"
INDEX 00 28:58:59
INDEX 01 28:59:08
TRACK 10 AUDIO
TITLE "Killer Cat"
PERFORMER "Tyrant"
INDEX 00 34:56:23
INDEX 01 34:57:30

_________________
Death rules! Metal to all who oppose!


Last edited by metaleonid on 29 Mar 2011, edited 2 times in total.

Top
 Profile  
 
 
PostPosted: 29 Mar 2011 
Хиппей (support team)
User avatar
Joined: 30 Jul 2007
Posts: 113625
Lоcаtion: Киев (Kyiv, UA)
Age: 46
Name: Andrey
metaleonid wrote:
Tyrant - Mean Machine первопресс

:thanx:
mirror: iFolder l Narod

_________________


Top
 Profile E-mail  
 
 
PostPosted: 29 Mar 2011 
спирт 100%
User avatar
Joined: 22 Sep 2008
Posts: 4447
Age: 48
Name: Саня
:thanx: Спасибо!


Top
 Profile  
 
 
PostPosted: 29 Mar 2011 
А может смените мне статус?..
User avatar
Joined: 24 Dec 2008
Posts: 645
Age: 45
Name: Дмитрий
Благодарю! :meloman:


Top
 Profile  
 
 
PostPosted: 30 Mar 2011 
дядя Миша
User avatar
Joined: 17 Oct 2008
Posts: 3154
Lоcаtion: USSR
Age: 56
Name: Khy
спасибо Лёня ,. звук специфичный, низкие выпирают.. :oops:


Top
 Profile  
 
 
PostPosted: 31 Mar 2011 
5-speed satisfactor
User avatar
Joined: 16 Feb 2009
Posts: 3738
Lоcаtion: New York, USA
Age: 41
Name: Leonid
Ну вот такой CD. А Battle Cry Records remaster полное говно, хотя этого альбома я не слышал. Я уверен, что Brainstom звучит гораздо лучше и true. Что Battle Cry со Stormwitch–ем сделали, не поддается никакой критике.

_________________
Death rules! Metal to all who oppose!


Top
 Profile  
 
 
PostPosted: 31 Mar 2011 
А может смените мне статус?..
User avatar
Joined: 22 Nov 2008
Posts: 971
Lоcаtion: Schelcovo,Russia
Age: 47
Name: Сергей
А "ЛазерЛайт" позже выпустили?


Top
 Profile  
 
 
PostPosted: 01 Apr 2011 
5-speed satisfactor
User avatar
Joined: 16 Feb 2009
Posts: 3738
Lоcаtion: New York, USA
Age: 41
Name: Leonid
LaserLight выпускали другие диски Tyrant–а, причем под другими названиями. А вот насчет Mean Machine не знаю.

_________________
Death rules! Metal to all who oppose!


Top
 Profile  
 
 
PostPosted: 01 Apr 2011 
А может смените мне статус?..
User avatar
Joined: 22 Nov 2008
Posts: 971
Lоcаtion: Schelcovo,Russia
Age: 47
Name: Сергей
Извиняюсь,это я с "Метал Рулез" перепутал. :dash:


Top
 Profile  
 
 
PostPosted: 04 Oct 2013 
Персональный статус
User avatar
Joined: 11 May 2011
Posts: 420
Lоcаtion: Omsk
Age: 29
Name: Alexander
Спасибо за очередной раритет!
Я уверен, что Brainstom звучит гораздо лучше и true.

Леонид, и всё же, какому изданию предпочтение отдали - Hot Blood или Brainstorm?

_________________
Enigma, unholy, ungodly, commander of the regeneration
Insidious and caught, implored by disgrace
Inhumation... The burial of man
Confession... Unify all evil


Top
 Profile E-mail  
 
 
PostPosted: 27 Jun 2014 
Я набрал 1000 сообщений!
Joined: 21 Nov 2009
Posts: 1414
Lоcаtion: praga
Age: 48
Name: Сергей
Привет.Не получается разделить Tyrant по песням что бы записать на болванку.Помогите пожалуйста.


Top
 Profile E-mail  
 
 
PostPosted: 27 Jun 2014 
Прокъмитолист
User avatar
Joined: 12 Aug 2007
Posts: 6579
Lоcаtion: Санктъ-Петербуркъ
Age: 51
Name: Олекъ
зачем что-то делить? берем куй и записываем. или проблема в чем-то еще?

_________________
прокъметол - это музыко, от которово есть прок (ы)


Top
 Profile  
 
 
PostPosted: 27 Jun 2014 
Я набрал 1000 сообщений!
Joined: 21 Nov 2009
Posts: 1414
Lоcаtion: praga
Age: 48
Name: Сергей
А можно по подробнее.я делал когда cue был в папке вместе с рипом,а тут не пойму. :vic: :dash: как скопировать cue со страници,или как?


Top
 Profile E-mail  
 
 
PostPosted: 27 Jun 2014 
Прокъмитолист
User avatar
Joined: 12 Aug 2007
Posts: 6579
Lоcаtion: Санктъ-Петербуркъ
Age: 51
Name: Олекъ
sin2 wrote:
А можно по подробнее

разумеется: viewtopic.php?f=209&t=1708
но суть проблемы все же не понятна :vic:

_________________
прокъметол - это музыко, от которово есть прок (ы)


Top
 Profile  
 
 
PostPosted: 03 Aug 2015 
Я набрал 1000 сообщений!
Joined: 21 Nov 2009
Posts: 1414
Lоcаtion: praga
Age: 48
Name: Сергей
Tyrant - Mean Machine (Gama records)

Image


Top
 Profile E-mail  
 
 
PostPosted: 04 Aug 2015 
5-speed satisfactor
User avatar
Joined: 16 Feb 2009
Posts: 3738
Lоcаtion: New York, USA
Age: 41
Name: Leonid
Это что?

_________________
Death rules! Metal to all who oppose!


Top
 Profile  
 
 
PostPosted: 04 Aug 2015 
Хиппей (support team)
User avatar
Joined: 30 Jul 2007
Posts: 113625
Lоcаtion: Киев (Kyiv, UA)
Age: 46
Name: Andrey
Как минимум - это ссылка :crazy:

_________________


Top
 Profile E-mail  
 
 
PostPosted: 04 Aug 2015 
Хиппей (support team)
User avatar
Joined: 30 Jul 2007
Posts: 113625
Lоcаtion: Киев (Kyiv, UA)
Age: 46
Name: Andrey
Tyrant - Mean Machine (Gama records)

Image

Серёг, это ты Лёнин рип ужал и довёл до приятного визуального оформления, или рипнул свой?
Судя по саунду - оба рипа идентичны :vic:
зы. Ага, точно. Логи и куи тоже совпадают :pardon:

_________________


Top
 Profile E-mail  
 
 
PostPosted: 04 Aug 2015 
Хиппей (support team)
User avatar
Joined: 30 Jul 2007
Posts: 113625
Lоcаtion: Киев (Kyiv, UA)
Age: 46
Name: Andrey
А я тожа пока оба отзеркалю =)

_________________


Top
 Profile E-mail  
 
Display posts from previous:  Sort by  
Post new topic Reply to topic  [ 57 posts ]  Go to page 1, 2, 3  Next

All times are UTC + 3 hours


Who is online

Users browsing this forum: No registered users and 2 guests


You cannot post new topics in this forum
You cannot reply to topics in this forum
You cannot edit your posts in this forum
You cannot delete your posts in this forum
You cannot post attachments in this forum

Search for:
Яндекс.Метрика
Powered by phpBB © 2000, 2002, 2005, 2007 phpBB Group