\m/ 80's metal \m/

Информационно-аналитический форум "80 см пыли" (In Search We Trust) "У нас никто никуда не спешит"
Me For You - http://me-4u.com
It is currently 20 Oct 2019

All times are UTC + 3 hours

Spoiler
Chat - temporary registration for foreign users (please leave your application here)







Post new topic Reply to topic  [ 4 posts ] 
Author Message
 
PostPosted: 02 Nov 2010 
Персональный статус
User avatar
Joined: 02 Feb 2009
Posts: 236
Lоcаtion: Тульская область
Age: 53
Name: Владимир
Image

Стиль: Heavy Metal / Hard Rock
Качество: APE (image +.cue), log, booklet.
Размер: 472 мб (+3%)
Каталоговый номер: WPCR-12286
Источник: EsparaelMetal


Line-up:
Glenn Tipton - Vocals & Guitars
John Entwistle - Bass
Cozy Powell - Drums

Don Airey - Keyboards
Neil Murray - Bass on 11

Tracklist
1. Unknown Soldier
2. Friendly Fire
3. The Holy Man
4. Never Say Die
5. Resolution
6. Searching
7. Give Blood
8. Crime of Passion
9. Walls Cave In
10. Edge of the World
11. Stronger Than the Drug


iFolder

Огромное спасибо группе EsparaelMetal и лично jarpomarx за предоставленный материал. :thanx:

log
Exact Audio Copy V0.99 prebeta 5 from 4. May 2009

EAC extraction logfile from 19. October 2010, 12:44

Tipton, Entwistle & Powell / Edge Of The World (Japan WPCR-12286)

Used drive : HL-DT-STDVDRAM GSA-H10A Adapter: 3 ID: 0

Read mode : Secure
Utilize accurate stream : Yes
Defeat audio cache : Yes
Make use of C2 pointers : No

Read offset correction : 667
Overread into Lead-In and Lead-Out : No
Fill up missing offset samples with silence : Yes
Delete leading and trailing silent blocks : No
Null samples used in CRC calculations : Yes
Used interface : Native Win32 interface for Win NT & 2000

Used output format : Monkey's Audio Lossless Encoder
Selected bitrate : High Lossless Compression
Quality : High
Add ID3 tag : Yes
Command line compressor : C:\Archivos de programa\Monkey's Audio\MAC.exe


TOC of the extracted CD

Track | Start | Length | Start sector | End sector
---------------------------------------------------------
1 | 0:00.00 | 1:19.35 | 0 | 5959
2 | 1:19.35 | 5:31.49 | 5960 | 30833
3 | 6:51.09 | 5:00.19 | 30834 | 53352
4 | 11:51.28 | 4:47.57 | 53353 | 74934
5 | 16:39.10 | 6:50.01 | 74935 | 105685
6 | 23:29.11 | 4:40.06 | 105686 | 126691
7 | 28:09.17 | 3:55.18 | 126692 | 144334
8 | 32:04.35 | 5:16.42 | 144335 | 168076
9 | 37:21.02 | 4:34.63 | 168077 | 188689
10 | 41:55.65 | 5:39.10 | 188690 | 214124
11 | 47:35.00 | 5:13.00 | 214125 | 237599


Range status and errors

Selected range

Filename D:\Mъsica\EAC\Tipton\Tipton, Entwistle & Powell - Edge Of The World (Japan WPCR-12286).wav

Peak level 100.0 %
Range quality 100.0 %
Copy CRC D3F8F9CF
Copy OK

No errors occurred


AccurateRip summary

Track 1 not present in database
Track 2 not present in database
Track 3 not present in database
Track 4 not present in database
Track 5 not present in database
Track 6 not present in database
Track 7 not present in database
Track 8 not present in database
Track 9 not present in database
Track 10 not present in database
Track 11 not present in database

None of the tracks are present in the AccurateRip database

End of status report

cue
REM GENRE "Heavy Metal"
REM DATE 2006
REM DISCID 7A0C600B
REM COMMENT "ExactAudioCopy v0.99pb5"
PERFORMER "Tipton, Entwistle & Powell"
TITLE "Edge Of The World (Japan WPCR-12286)"
FILE "Tipton, Entwistle & Powell - Edge Of The World (Japan WPCR-12286).ape" WAVE
TRACK 01 AUDIO
TITLE "Unknown Soldier"
PERFORMER "Tipton, Entwistle & Powell"
INDEX 01 00:00:00
TRACK 02 AUDIO
TITLE "Friendly Fire"
PERFORMER "Tipton, Entwistle & Powell"
INDEX 01 01:19:35
TRACK 03 AUDIO
TITLE "The Holy Man"
PERFORMER "Tipton, Entwistle & Powell"
INDEX 01 06:51:09
TRACK 04 AUDIO
TITLE "Never Say Die"
PERFORMER "Tipton, Entwistle & Powell"
INDEX 01 11:51:28
TRACK 05 AUDIO
TITLE "Resolution"
PERFORMER "Tipton, Entwistle & Powell"
INDEX 01 16:39:10
TRACK 06 AUDIO
TITLE "Searching"
PERFORMER "Tipton, Entwistle & Powell"
INDEX 00 23:28:45
INDEX 01 23:29:11
TRACK 07 AUDIO
TITLE "Give Blood"
PERFORMER "Tipton, Entwistle & Powell"
INDEX 00 28:07:60
INDEX 01 28:09:17
TRACK 08 AUDIO
TITLE "Crime Of Passion"
PERFORMER "Tipton, Entwistle & Powell"
INDEX 01 32:04:35
TRACK 09 AUDIO
TITLE "Walls Cave In"
PERFORMER "Tipton, Entwistle & Powell"
INDEX 01 37:21:02
TRACK 10 AUDIO
TITLE "Edge Of The World"
PERFORMER "Tipton, Entwistle & Powell"
INDEX 01 41:55:65
TRACK 11 AUDIO
TITLE "Stronger Than The Drug"
PERFORMER "Tipton, Entwistle & Powell"
INDEX 00 47:33:20
INDEX 01 47:35:00

_________________
http://img254.imageshack.us/img254/1015 ... 743574.gif
http://img140.imageshack.us/img140/7192 ... arlogo.jpg


Top
 Profile  
 
 
PostPosted: 03 Nov 2010 
metallpaparazzy
User avatar
Joined: 20 Dec 2009
Posts: 674
Lоcаtion: Днепропетровск
Age: 44
Name: Геннадий
:thanx:
был когда-то на левандосе, так и не списал себе -- забераю :true:
только че-то мне помнится, что картинка в зеленых тонах была... :vic:


Top
 Profile E-mail  
 
 
PostPosted: 03 Nov 2010 
Персональный статус
User avatar
Joined: 02 Feb 2009
Posts: 236
Lоcаtion: Тульская область
Age: 53
Name: Владимир
В сканиках картиночки (фронт, бэк) зеленят мальца, но до елочек им далеко.

_________________
http://img254.imageshack.us/img254/1015 ... 743574.gif
http://img140.imageshack.us/img140/7192 ... arlogo.jpg


Top
 Profile  
 
 
PostPosted: 03 Nov 2010 
Power Metal Maniac
User avatar
Joined: 09 Aug 2008
Posts: 6923
Lоcаtion: Москва
Age: 41
Name: Егор
увы, слишком хардовый релиз, купил CD даже, польстившись на имена. Но ничего особо не понравилось (

_________________
Long Live Metal!


Top
 Profile  
 
Display posts from previous:  Sort by  
Post new topic Reply to topic  [ 4 posts ] 

All times are UTC + 3 hours


Who is online

Users browsing this forum: No registered users and 3 guests


You cannot post new topics in this forum
You cannot reply to topics in this forum
You cannot edit your posts in this forum
You cannot delete your posts in this forum
You cannot post attachments in this forum

Search for:
Яндекс.Метрика
Powered by phpBB © 2000, 2002, 2005, 2007 phpBB Group