\m/ 80's metal \m/

Информационно-аналитический форум "80 см пыли" (In Search We Trust) "У нас никто никуда не спешит"
Me For You - http://me-4u.com
It is currently 20 Sep 2019

All times are UTC + 3 hours

Spoiler
Chat - temporary registration for foreign users (please leave your application here)







Post new topic Reply to topic  [ 9 posts ] 
Author Message
 
PostPosted: 29 Oct 2010 
ыыыы
User avatar
Joined: 17 May 2009
Posts: 952
Lоcаtion: Пушкино, МО
Age: 40
Name: Дмитрий
Image


Жанр: Instrumental Rock/Neo-classical Metal/Jazz Fusion/Heavy Metal/Progressive Metal/Hard Rock/Shred
Происхождение исполнителя: США
Год издания: 1986
Год издания данного носителя: 1986
Страна-производитель носителя: Япония
Аудио кодек: FLAC
Тип рипа: image+.cue
Битрейт аудио: lossless
Продолжительность: 41:23
Рип: Собственный
Лейбл: SHRAPNEL/S.M.S.
Каталоговый номер: MP32-5106
Матрица: MP32-5106-U1C 12 (JVC)

Треклист:
1. Wheel of Fortune 03:44
2. The Stranger 03:59
3. Quarter to Midnight (Live Solo) 02:25
4. Agrionia 04:31
5. Empire in the Sky 05:56 [в т.ч. + Untitled (intro to track 6, only separated on the Roadrunner Records issue/reissue)]
6. The Witch and the Priest 03:33
7. The Taker 03:22
8. Chopin, Prelude 16, Opus 28 (Frédéric Chopin) 01:20
9. Edge of Insanity 04:18
10. The Raven 04:13
11. No Place in Time 04:02

"Куй"
REM GENRE "Instrumental Rock"
REM DATE 1986
REM DISCID 8809B30B
REM COMMENT "ExactAudioCopy v0.99pb5"
PERFORMER "Tony MacAlpine"
TITLE "Edge of Insanity [MP32-5106]"
FILE "Tony MacAlpine - Edge of Insanity [MP32-5106].flac" WAVE
TRACK 01 AUDIO
TITLE "Wheel Of Fortune"
PERFORMER "Tony MacAlpine"
INDEX 00 00:00:00
INDEX 01 00:00:37
TRACK 02 AUDIO
TITLE "The Stranger"
PERFORMER "Tony MacAlpine"
INDEX 01 03:44:37
TRACK 03 AUDIO
TITLE "Quarter To Midnight (Live Solo)"
PERFORMER "Tony MacAlpine"
INDEX 00 07:42:49
INDEX 01 07:43:50
TRACK 04 AUDIO
TITLE "Agrionia"
PERFORMER "Tony MacAlpine"
INDEX 00 10:08:14
INDEX 01 10:08:15
TRACK 05 AUDIO
TITLE "Empire In The Sky"
PERFORMER "Tony MacAlpine"
INDEX 01 14:38:57
TRACK 06 AUDIO
TITLE "The Witch And The Priest"
PERFORMER "Tony MacAlpine"
INDEX 00 20:33:57
INDEX 01 20:34:20
TRACK 07 AUDIO
TITLE "The Taker"
PERFORMER "Tony MacAlpine"
INDEX 01 24:07:52
TRACK 08 AUDIO
TITLE "Chopin, Prelude 16, Opus 28"
PERFORMER "Tony MacAlpine"
INDEX 00 27:29:59
INDEX 01 27:29:60
TRACK 09 AUDIO
TITLE "Edge Of Insanity"
PERFORMER "Tony MacAlpine"
INDEX 00 28:50:34
INDEX 01 28:50:35
TRACK 10 AUDIO
TITLE "The Raven"
PERFORMER "Tony MacAlpine"
INDEX 00 33:08:39
INDEX 01 33:08:40
TRACK 11 AUDIO
TITLE "No Place in Time"
PERFORMER "Tony MacAlpine"
INDEX 00 37:21:09
INDEX 01 37:21:10


"Лог"
Exact Audio Copy V0.99 prebeta 5 from 4. May 2009

Отчёт EAC об извлечении, выполненном 20. октября 2010, 10:57

Tony MacAlpine / Edge of Insanity [MP32-5106]

Дисковод: Optiarc DVD RW AD-7200A Adapter: 1 ID: 0

Режим чтения : Достоверность
Использование точного потока : Да
Отключение кэша аудио : Да
Использование указателей C2 : Нет

Коррекция смещения при чтении : 48
Способность читать области Lead-in и Lead-out : Нет
Заполнение пропущенных сэмплов тишиной : Да
Удаление блоков с тишиной в начале и конце : Нет
При вычислениях CRC использовались нулевые сэмплы : Да
Интерфейс : Встроенный Win32-интерфейс для Win NT/2000

Выходной формат : Пользовательский кодировщик
Выбранный битрейт : 128 kBit/s
Качество : Высокий
Добавление ID3-тэга : Нет
Утилита сжатия : C:\Program Files\Exact Audio Copy\Flac\flac.exe
Дополнительные параметры : -8 -V -T "artist=%a" -T "title=%t" -T "album=%g" -T "date=%y" -T "tracknumber=%n" -T "genre=%m" -T "comment=EAC


TOC извлечённого CD

Трек | Старт | Длительность | Начальный сектор | Конечный сектор
---------------------------------------------------------------------
1 | 0:00.37 | 3:44.00 | 37 | 16836
2 | 3:44.37 | 3:59.13 | 16837 | 34774
3 | 7:43.50 | 2:24.40 | 34775 | 45614
4 | 10:08.15 | 4:30.42 | 45615 | 65906
5 | 14:38.57 | 5:55.38 | 65907 | 92569
6 | 20:34.20 | 3:33.32 | 92570 | 108576
7 | 24:07.52 | 3:22.08 | 108577 | 123734
8 | 27:29.60 | 1:20.50 | 123735 | 129784
9 | 28:50.35 | 4:18.05 | 129785 | 149139
10 | 33:08.40 | 4:12.45 | 149140 | 168084
11 | 37:21.10 | 4:01.72 | 168085 | 186231


Характеристики диапазона извлечения и сообщения об ошибках

Выбранный диапазон

Имя файла Y:\Музыка\Tony MacAlpine\1986 Edge of Insanity\Tony MacAlpine - Edge of Insanity [MP32-5106].wav

Пиковый уровень 88.5 %
Качество диапазона 100.0 %
CRC теста 0483F2C2
CRC копии 0483F2C2
Копирование... OK

Ошибок не произошло


AccurateRip: сводка

Трек 1 точность не определена (достоверность 1) [45EDDC7D], AccurateRip вернул [3FC27027]
Трек 2 точность не определена (достоверность 1) [92E0A907], AccurateRip вернул [BDDF2D13]
Трек 3 точность не определена (достоверность 1) [C353459A], AccurateRip вернул [D1AAF8A7]
Трек 4 точность не определена (достоверность 1) [2EFF5C19], AccurateRip вернул [972A59A6]
Трек 5 точность не определена (достоверность 1) [A75DB50E], AccurateRip вернул [3FC23C9B]
Трек 6 точность не определена (достоверность 1) [5B502AD4], AccurateRip вернул [FA50AE9A]
Трек 7 точность не определена (достоверность 1) [0E8B1C08], AccurateRip вернул [B876621B]
Трек 8 точность не определена (достоверность 1) [78D6FC07], AccurateRip вернул [724E95E5]
Трек 9 точность не определена (достоверность 1) [C19C06FF], AccurateRip вернул [C52DF84A]
Трек 10 точность не определена (достоверность 1) [0D7A82F5], AccurateRip вернул [4A28970A]
Трек 11 точность не определена (достоверность 1) [68087376], AccurateRip вернул [D51A073D]

Ни один трек не прошёл проверки на точность
В вашей базе может быть иной вариант штамповки диска

Конец отчёта


Состав:
Tony MacAlpine: Electric guitar, keyboard, bass guitar (track 8)
Mike Mani: Keyboard programming
Steve Smith: Drums
Billy Sheehan: Bass guitar (except track 8)

MP32-5106

_________________
Витасу до Даймонда как Алсу до Руссоса | При переразмещении - спрашивать разрешение!!


Top
 Profile  
 
 
PostPosted: 29 Oct 2010 
Персональный статус
Joined: 14 May 2010
Posts: 236
Age: 37
Name: Денис
А вот и он!
Спасибо!

А что там за накрутки в 5/6 треках?


Top
 Profile  
 
 
PostPosted: 29 Oct 2010 
ыыыы
User avatar
Joined: 17 May 2009
Posts: 952
Lоcаtion: Пушкино, МО
Age: 40
Name: Дмитрий
на Вики- это разные треки и указаны как особенность Роадраннеровского ПЕРЕиздания. (5. Untitled (intro to track 6, only separated on the Roadrunner Records reissue)
А тут вроде как изначально идёт- я и указал issue/reissue

_________________
Витасу до Даймонда как Алсу до Руссоса | При переразмещении - спрашивать разрешение!!


Top
 Profile  
 
 
PostPosted: 29 Oct 2010 
Power Metal Maniac
User avatar
Joined: 09 Aug 2008
Posts: 6858
Lоcаtion: Москва
Age: 41
Name: Егор
:thanx: скачал!
Обожаю Тони, прекрасный музыкант-витруоз, талантливый композитор, его альбомы весьма разные стилистически, а первые, в которых есть неоклассика, особенно люблю.

_________________
Long Live Metal!


Last edited by EG Power on 30 Oct 2010, edited 1 time in total.

Top
 Profile  
 
 
PostPosted: 29 Oct 2010 
А может смените мне статус?..
User avatar
Joined: 24 Dec 2008
Posts: 647
Age: 45
Name: Дмитрий
Спасибо, хороший альбом.


Top
 Profile  
 
 
PostPosted: 29 Oct 2010 
А может смените мне статус?..
Joined: 03 Jul 2009
Posts: 883
Lоcаtion: Serbia
Name: Laki
Thank you !! Fantastic post . Much better sound than European cd. Do you have Japanese Cacophony - Speed Metal Symphony, by any chance?


Top
 Profile E-mail  
 
 
PostPosted: 29 Oct 2010 
Old Time Rock`n`Roll
User avatar
Joined: 23 Jun 2008
Posts: 3477
Lоcаtion: г.Ульяновск
Age: 41
Name: Константин
Cпасибо! Еще на кассете записывал в студии звукозаписи, отличная пластинка, следующий 1987 г. уже немного переслащенный.
Послушаю, вспомню институтские времена :true:


Top
 Profile  
 
 
PostPosted: 30 Oct 2010 
Хиппей (support team)
User avatar
Joined: 30 Jul 2007
Posts: 114391
Lоcаtion: Киев (Kyiv, UA)
Age: 46
Name: Andrey
:thanx:

_________________


Top
 Profile E-mail  
 
 
PostPosted: 31 Oct 2010 
ыыыы
User avatar
Joined: 17 May 2009
Posts: 952
Lоcаtion: Пушкино, МО
Age: 40
Name: Дмитрий
glory11
Not yet

_________________
Витасу до Даймонда как Алсу до Руссоса | При переразмещении - спрашивать разрешение!!


Top
 Profile  
 
Display posts from previous:  Sort by  
Post new topic Reply to topic  [ 9 posts ] 

All times are UTC + 3 hours


Who is online

Users browsing this forum: No registered users and 1 guest


You cannot post new topics in this forum
You cannot reply to topics in this forum
You cannot edit your posts in this forum
You cannot delete your posts in this forum
You cannot post attachments in this forum

Search for:
Яндекс.Метрика
Powered by phpBB © 2000, 2002, 2005, 2007 phpBB Group