\m/ 80's metal \m/

Информационно-аналитический форум "80 см пыли" (In Search We Trust) "У нас никто никуда не спешит"
Me For You - http://me-4u.com
It is currently 22 Jul 2019

All times are UTC + 3 hours

Spoiler
Chat - temporary registration for foreign users (please leave your application here)







Post new topic Reply to topic  [ 5 posts ] 
Author Message
 
PostPosted: 26 Oct 2010 
ыыыы
User avatar
Joined: 17 May 2009
Posts: 952
Lоcаtion: Пушкино, МО
Age: 40
Name: Дмитрий
Image


Жанр: Heavy Metal
Происхождение исполнителя Англия
Год издания: 1984
Год издания данного носителя: 1990
Страна-производитель носителя: Япония
Аудио кодек: FLAC
Тип рипа: image+.cue
Битрейт аудио: lossless
Продолжительность: 47:19
Рип: Собственный
Лейбл: ROADRUNNER/F.E.M.S
Каталоговый номер: APCY-8024
Матрица: APCY-8024-A2F 22 V (JVC)

Треклист:
1. The War Drags Ever On 08:15
2. When All Hell Freezes Over 05:57
3. Honour and Blood 06:32
4. Chain of Fools (Aretha Franklin cover) 04:08
5. W.M.L.A. (Wasting My Life Away) 05:18
6. Too Tired to Wait for Love 04:38
7. Kill 08:00
8. The Man That Never Was 04:31

"Куй"
REM GENRE "Heavy Metal"
REM DATE 1984
REM DISCID 770B1708
REM COMMENT "ExactAudioCopy v0.99pb5"
PERFORMER "Tank"
TITLE "Honour And Blood [APCY-8024]"
FILE "Tank - Honour And Blood [APCY-8024].flac" WAVE
TRACK 01 AUDIO
TITLE "The War Drags Ever On"
PERFORMER "Tank"
INDEX 00 00:00:00
INDEX 01 00:00:37
TRACK 02 AUDIO
TITLE "When All Hell Freezes Over"
PERFORMER "Tank"
INDEX 01 08:15:17
TRACK 03 AUDIO
TITLE "Honour And Blood"
PERFORMER "Tank"
INDEX 01 14:11:55
TRACK 04 AUDIO
TITLE "Chain Of Fools"
PERFORMER "Tank"
INDEX 01 20:43:27
TRACK 05 AUDIO
TITLE "W.M.L.A."
PERFORMER "Tank"
INDEX 01 24:51:45
TRACK 06 AUDIO
TITLE "Too Tired To Wait For Love"
PERFORMER "Tank"
INDEX 01 30:09:52
TRACK 07 AUDIO
TITLE "Kill"
PERFORMER "Tank"
INDEX 01 34:47:25
TRACK 08 AUDIO
TITLE "The Man That Never Was"
PERFORMER "Tank"
INDEX 01 42:47:50


"Лог"
Exact Audio Copy V0.99 prebeta 5 from 4. May 2009

Отчёт EAC об извлечении, выполненном 25. октября 2010, 10:40

Tank / Honour And Blood [APCY-8024]

Дисковод: Optiarc DVD RW AD-7200A Adapter: 1 ID: 0

Режим чтения : Достоверность
Использование точного потока : Да
Отключение кэша аудио : Да
Использование указателей C2 : Нет

Коррекция смещения при чтении : 48
Способность читать области Lead-in и Lead-out : Нет
Заполнение пропущенных сэмплов тишиной : Да
Удаление блоков с тишиной в начале и конце : Нет
При вычислениях CRC использовались нулевые сэмплы : Да
Интерфейс : Встроенный Win32-интерфейс для Win NT/2000

Выходной формат : Пользовательский кодировщик
Выбранный битрейт : 128 kBit/s
Качество : Высокий
Добавление ID3-тэга : Нет
Утилита сжатия : C:\Program Files\Exact Audio Copy\Flac\flac.exe
Дополнительные параметры : -8 -V -T "artist=%a" -T "title=%t" -T "album=%g" -T "date=%y" -T "tracknumber=%n" -T "genre=%m" -T "comment=EAC


TOC извлечённого CD

Трек | Старт | Длительность | Начальный сектор | Конечный сектор
---------------------------------------------------------------------
1 | 0:00.37 | 8:14.55 | 37 | 37141
2 | 8:15.17 | 5:56.38 | 37142 | 63879
3 | 14:11.55 | 6:31.47 | 63880 | 93251
4 | 20:43.27 | 4:08.18 | 93252 | 111869
5 | 24:51.45 | 5:18.07 | 111870 | 135726
6 | 30:09.52 | 4:37.48 | 135727 | 156549
7 | 34:47.25 | 8:00.25 | 156550 | 192574
8 | 42:47.50 | 4:31.62 | 192575 | 212961


Характеристики диапазона извлечения и сообщения об ошибках

Выбранный диапазон

Имя файла Y:\Музыка\Tank\1984 Honour And Blood\Tank - Honour And Blood [APCY-8024].wav

Пиковый уровень 99.9 %
Качество диапазона 99.9 %
CRC теста 1CBCD008
CRC копии 1CBCD008
Копирование... OK

Ошибок не произошло


AccurateRip: сводка

Трек 1 нет в базе данных
Трек 2 нет в базе данных
Трек 3 нет в базе данных
Трек 4 нет в базе данных
Трек 5 нет в базе данных
Трек 6 нет в базе данных
Трек 7 нет в базе данных
Трек 8 нет в базе данных

Ни одного трека нет в базе AccurateRip

Конец отчёта


Состав:
Algy Ward: Vocals, bass
Mick Tucker: Guitar
Cliff Evans: Guitar
Graham Crallan: Drums

APCY-8024

_________________
Витасу до Даймонда как Алсу до Руссоса | При переразмещении - спрашивать разрешение!!


Top
 Profile  
 
 
PostPosted: 26 Oct 2010 
Gretzky must die
User avatar
Joined: 16 Sep 2010
Posts: 265
Lоcаtion: Московская обл.
Name: Андрей
Спасибо Дима ! :thanx:


Top
 Profile  
 
 
PostPosted: 26 Oct 2010 
Хиппей (support team)
User avatar
Joined: 30 Jul 2007
Posts: 113585
Lоcаtion: Киев (Kyiv, UA)
Age: 46
Name: Andrey
:thanx:

_________________


Top
 Profile E-mail  
 
 
PostPosted: 26 Oct 2010 
дядя Миша
User avatar
Joined: 17 Oct 2008
Posts: 3152
Lоcаtion: USSR
Age: 56
Name: Khy
спасибо!


Top
 Profile  
 
 
PostPosted: 26 Oct 2010 
Motörheadache
User avatar
Joined: 04 Feb 2010
Posts: 1294
Lоcаtion: Впереди- горы,позади-степи
Age: 46
Name: Александр
неплохой таки ТАНК.....
Дим,спасибо ! :true: :true:

_________________
Eine Nation, Ein Land, Eine Schnaps!

Наш священный долг:защищать Родину,и соблюдать правила личной гигиены....!


Top
 Profile E-mail  
 
Display posts from previous:  Sort by  
Post new topic Reply to topic  [ 5 posts ] 

All times are UTC + 3 hours


Who is online

Users browsing this forum: No registered users and 2 guests


You cannot post new topics in this forum
You cannot reply to topics in this forum
You cannot edit your posts in this forum
You cannot delete your posts in this forum
You cannot post attachments in this forum

Search for:
Яндекс.Метрика
cron
Powered by phpBB © 2000, 2002, 2005, 2007 phpBB Group