\m/ 80's metal \m/

Информационно-аналитический форум "80 см пыли" (In Search We Trust) "У нас никто никуда не спешит"
Me For You - http://me-4u.com
It is currently 15 Oct 2019

All times are UTC + 3 hours

Spoiler
Chat - temporary registration for foreign users (please leave your application here)







Post new topic Reply to topic  [ 3 posts ] 
Author Message
 
PostPosted: 05 Oct 2010 
адын фелософъ прокметолу
User avatar
Joined: 22 Oct 2009
Posts: 2788
Lоcаtion: Сочи
Age: 42
Name: Сергей
Image
Исполнитель: Time Machine
Альбом: Dungeons Of The Vatican (EP) + Bonus Tracks
Год издания: 1994
Год издания данного носителя: 2005
Жанр: Progressive Metal
Происхождение исполнителя. Италия
Аудио кодек: FLAC
Тип Рипа: image+cue+log
Битрейт Аудио: Loseless
Продолжительность: 46:18
Рип: Собственный
Лейбл: Lucretia Records
Каталоговый Номер: LU20031-2

Треклист:
1.Dungeons Of The Vatican
2.753 A.C. Ab Urbe Condita
3.Medieval Lady
4. Burning In The Wind (Live)
5. White Collars (Live)
6. Wuthering Heights (Live)
7. Beyond The Window (Live)
8. 753 A.D. Ab Urbe Condita (Live)
9. Medieval Lady (Live)
10. Unreleased Track

"CUE"
REM GENRE Metal
REM DATE 1994
REM DISCID 880ADA0A
REM COMMENT "ExactAudioCopy v0.95b4"
PERFORMER "Time Machine"
TITLE "Dungeons Of The Vatican"
FILE "Time Machine - Dungeons Of The Vatican.wav" WAVE
TRACK 01 AUDIO
TITLE "Dungeons Of The Vatican"
PERFORMER "Time Machine"
INDEX 01 00:00:00
TRACK 02 AUDIO
TITLE "753 A.C., A6 Urbe Conbita"
PERFORMER "Time Machine"
INDEX 00 05:00:54
INDEX 01 05:01:54
TRACK 03 AUDIO
TITLE "Webiewal Baby"
PERFORMER "Time Machine"
INDEX 00 11:33:25
INDEX 01 11:34:25
TRACK 04 AUDIO
TITLE "Burninng In The Wind (Live)"
PERFORMER "Time Machine"
INDEX 00 12:42:26
INDEX 01 12:43:26
TRACK 05 AUDIO
TITLE "Wiite Collars (Live)"
PERFORMER "Time Machine"
INDEX 01 15:57:07
TRACK 06 AUDIO
TITLE "Wuthering Heights (Unpligged)"
PERFORMER "Time Machine"
INDEX 00 20:32:15
INDEX 01 20:33:15
TRACK 07 AUDIO
TITLE "Beyond The Window (Live)"
PERFORMER "Time Machine"
INDEX 00 24:37:24
INDEX 01 24:38:24
TRACK 08 AUDIO
TITLE "753 A.C., A6 Urbe Conbita (live)"
PERFORMER "Time Machine"
INDEX 00 31:13:18
INDEX 01 31:14:18
TRACK 09 AUDIO
TITLE "Webiewal Baby (live)"
PERFORMER "Time Machine"
INDEX 00 36:37:24
INDEX 01 36:38:24
TRACK 10 AUDIO
TITLE "Unreleased Track"
PERFORMER "Time Machine"
INDEX 00 40:34:62
INDEX 01 40:35:62


"Log"
Отчёт EAC об извлечении, выполненном 27. сентября 2010, 19:30 для диска:
Time Machine / Dungeons Of The Vatican

Дисковод: Optiarc DVD RW AD-7241S Adapter: 1 ID: 0
Режим чтения: Достоверный (C2: нет, Точный поток: да, Отключение кэша: да)
Коррекция смещения при чтении: 48
Способность читать области Lead-in и Lead-out : Нет

Выходной формат: Внутренние WAV-операции
44.100 Гц; 16 бит; стерео

Другие параметры:
Заполнение пропущенных сэмплов тишиной : Да
Удаление блоков с тишиной в начале и конце : Нет
Установленный внешний ASPI-интерфейс


Характеристики диапазона извлечения и сообщения об ошибках
Выбранный диапазон
Имя файла C:\Users\Сергей\Music\Loseless\Time Machine 1994\Time Machine - Dungeons Of The Vatican.wav

Пиковый уровень 100.0 %
Качество диапазона 100.0 %
CRC 1AE96A7B
Копирование... OK

Ошибок не произошло

Конец отчёта
время звучания 46 минут 18 секунд


Состав:
Jonathan Lavino - Vocals
Joe Taccone - Guitars
Ivan Oggioni - Guitar
Mirko Criscione - Keyboards
Fabio Brigliadoro - Drums & percussion
Lorenzo Dehò - Bass & keyboards

залито на мегу

К сожалению сканы получились не очень, никак не могу найти людей, которые добросовестно обращались со сканером.
Поэтому как найду нормальных людей, которые ровно кладут обложку, тогда сканы перезалью.

_________________
Я ненавижу гранж и альтернативную музыку


Top
 Profile E-mail  
 
 
PostPosted: 05 Oct 2010 
Прокъмитолист
User avatar
Joined: 12 Aug 2007
Posts: 6620
Lоcаtion: Санктъ-Петербуркъ
Age: 51
Name: Олекъ
спасибо, Серега! вроде ничего нового в этом минике и нет, но в коллекцию утащу :thanx:

_________________
прокъметол - это музыко, от которово есть прок (ы)


Top
 Profile  
 
 
PostPosted: 24 Oct 2010 
труъ антисионист
User avatar
Joined: 01 Aug 2007
Posts: 4544
Lоcаtion: Откуда и большинство из нас
Age: 38
Name: Дядя Вова
От меня тоже всякие спасибы, за машину времени! :true:

_________________
Image
Image


Top
 Profile  
 
Display posts from previous:  Sort by  
Post new topic Reply to topic  [ 3 posts ] 

All times are UTC + 3 hours


Who is online

Users browsing this forum: No registered users and 3 guests


You cannot post new topics in this forum
You cannot reply to topics in this forum
You cannot edit your posts in this forum
You cannot delete your posts in this forum
You cannot post attachments in this forum

Search for:
Яндекс.Метрика
Powered by phpBB © 2000, 2002, 2005, 2007 phpBB Group