\m/ 80's metal \m/

Информационно-аналитический форум "80 см пыли" (In Search We Trust) "У нас никто никуда не спешит"
Me For You - http://me-4u.com
It is currently 23 Jul 2019

All times are UTC + 3 hours

Spoiler
Chat - temporary registration for foreign users (please leave your application here)







Post new topic Reply to topic  [ 6 posts ] 
Author Message
 
PostPosted: 16 Sep 2010 
ыыыы
User avatar
Joined: 17 May 2009
Posts: 952
Lоcаtion: Пушкино, МО
Age: 40
Name: Дмитрий
Image


Жанр: Heavy Metal
Происхождение исполнителя: Англия
Год издания: 1984
Год издания данного носителя: 1984
Страна-производитель носителя: Япония
Аудио кодек: FLAC
Тип рипа: image+.cue
Битрейт аудио: lossless
Продолжительность: 34:46
Рип: Собственный
Лейбл: ROADRUNNER
Каталоговый номер: RR 34 9826
Матрица: RR34 9826 X-267 1A1 (CTA)

Треклист:
1. Someone to Love 03:40
2. Night of the Blade 04:02
3. Rock Me to the Limit 04:55
4. Warrior of the Rising Sun 05:25
5. Unleash the Beast 04:32
6. Love Struck 03:47
7. Dead of the Night 03:55
8. Lightning Strikes (Straight Through the Heart) 04:30

"Куй"
REM GENRE "Heavy Metal"
REM DATE 1984
REM DISCID 63082508
REM COMMENT "ExactAudioCopy v0.99pb5"
PERFORMER "Tokyo Blade"
TITLE "Night Of The Blade [RR 34 9826]"
FILE "Tokyo Blade - Night Of The Blade [RR 34 9826].flac" WAVE
TRACK 01 AUDIO
TITLE "Someone To Love"
PERFORMER "Tokyo Blade"
INDEX 01 00:00:00
TRACK 02 AUDIO
TITLE "Night Of The Blade"
PERFORMER "Tokyo Blade"
INDEX 00 03:38:47
INDEX 01 03:39:67
TRACK 03 AUDIO
TITLE "Rock Me To The Limit"
PERFORMER "Tokyo Blade"
INDEX 00 07:40:47
INDEX 01 07:42:00
TRACK 04 AUDIO
TITLE "Warrior Of The Rising Sun"
PERFORMER "Tokyo Blade"
INDEX 00 12:34:60
INDEX 01 12:36:40
TRACK 05 AUDIO
TITLE "Unleash The Beast"
PERFORMER "Tokyo Blade"
INDEX 00 18:00:12
INDEX 01 18:01:30
TRACK 06 AUDIO
TITLE "Lovestruck"
PERFORMER "Tokyo Blade"
INDEX 00 22:31:50
INDEX 01 22:33:12
TRACK 07 AUDIO
TITLE "Dead Of The Night"
PERFORMER "Tokyo Blade"
INDEX 00 26:18:35
INDEX 01 26:19:70
TRACK 08 AUDIO
TITLE "Lightning Strikes (Straight Through The Heart)"
PERFORMER "Tokyo Blade"
INDEX 00 30:15:05
INDEX 01 30:15:25


"Лог"
Exact Audio Copy V0.99 prebeta 5 from 4. May 2009

Отчёт EAC об извлечении, выполненном 16. сентября 2010, 11:16

Tokyo Blade / Night Of The Blade [RR 34 9826]

Дисковод: Optiarc DVD RW AD-7200A Adapter: 1 ID: 0

Режим чтения : Достоверность
Использование точного потока : Да
Отключение кэша аудио : Да
Использование указателей C2 : Нет

Коррекция смещения при чтении : 48
Способность читать области Lead-in и Lead-out : Нет
Заполнение пропущенных сэмплов тишиной : Да
Удаление блоков с тишиной в начале и конце : Нет
При вычислениях CRC использовались нулевые сэмплы : Да
Интерфейс : Встроенный Win32-интерфейс для Win NT/2000

Выходной формат : Пользовательский кодировщик
Выбранный битрейт : 128 kBit/s
Качество : Высокий
Добавление ID3-тэга : Нет
Утилита сжатия : C:\Program Files\Exact Audio Copy\Flac\flac.exe
Дополнительные параметры : -8 -V -T "artist=%a" -T "title=%t" -T "album=%g" -T "date=%y" -T "tracknumber=%n" -T "genre=%m" -T "comment=EAC


TOC извлечённого CD

Трек | Старт | Длительность | Начальный сектор | Конечный сектор
---------------------------------------------------------------------
1 | 0:00.00 | 3:39.67 | 0 | 16491
2 | 3:39.67 | 4:02.08 | 16492 | 34649
3 | 7:42.00 | 4:54.40 | 34650 | 56739
4 | 12:36.40 | 5:24.65 | 56740 | 81104
5 | 18:01.30 | 4:31.57 | 81105 | 101486
6 | 22:33.12 | 3:46.58 | 101487 | 118494
7 | 26:19.70 | 3:55.30 | 118495 | 136149
8 | 30:15.25 | 4:30.32 | 136150 | 156431


Характеристики диапазона извлечения и сообщения об ошибках

Выбранный диапазон

Имя файла Y:\Музыка\Tokyo Blade\1984 Night Of The Blade\Tokyo Blade - Night Of The Blade [RR 34 9826].wav

Пиковый уровень 98.5 %
Качество диапазона 100.0 %
CRC копии 6D3A6B94
Копирование... OK

Ошибок не произошло


AccurateRip: сводка

Трек 1 нет в базе данных
Трек 2 нет в базе данных
Трек 3 нет в базе данных
Трек 4 нет в базе данных
Трек 5 нет в базе данных
Трек 6 нет в базе данных
Трек 7 нет в базе данных
Трек 8 нет в базе данных

Ни одного трека нет в базе AccurateRip

Конец отчёта


Состав:
Vic Wright: Vocals
Andy Boulton: Guitars
John Wiggins: Guitars
Andy Wrighton: Bass
Steeve Pierce: Drums

RR 34 9826

_________________
Витасу до Даймонда как Алсу до Руссоса | При переразмещении - спрашивать разрешение!!


Top
 Profile  
 
 
PostPosted: 16 Sep 2010 
Thrasher
User avatar
Joined: 07 Oct 2007
Posts: 2760
Lоcаtion: Russia, Moscow
Age: 35
Name: Drunk & Evil
:thanx:

_________________
ВОДКА, БАБЫ И БЛЮЗ / 40° till death... :bodun:
One time we saw some hookers, but when we got closer, we realised it was Mötley Crüe. ©


Top
 Profile  
 
 
PostPosted: 16 Sep 2010 
А может смените мне статус?..
User avatar
Joined: 24 Dec 2008
Posts: 645
Age: 45
Name: Дмитрий
Спасибо, раньше не слышал.


Top
 Profile  
 
 
PostPosted: 16 Sep 2010 
Хиппей (support team)
User avatar
Joined: 30 Jul 2007
Posts: 113628
Lоcаtion: Киев (Kyiv, UA)
Age: 46
Name: Andrey
:thanx:

_________________


Top
 Profile E-mail  
 
 
PostPosted: 16 Sep 2010 
дядя Миша
User avatar
Joined: 17 Oct 2008
Posts: 3154
Lоcаtion: USSR
Age: 56
Name: Khy
Культ!!!!!!! У меня два варианта есть. Запись не очень . Ну , а этот .........
Спасибо !!!!!!!!!!


Top
 Profile  
 
 
PostPosted: 16 Sep 2010 
ыыыы
User avatar
Joined: 17 May 2009
Posts: 952
Lоcаtion: Пушкино, МО
Age: 40
Name: Дмитрий
а этот- первый японец ) второй издавался на Викторе в 86 году. Тоже плохо встречается))

_________________
Витасу до Даймонда как Алсу до Руссоса | При переразмещении - спрашивать разрешение!!


Top
 Profile  
 
Display posts from previous:  Sort by  
Post new topic Reply to topic  [ 6 posts ] 

All times are UTC + 3 hours


Who is online

Users browsing this forum: No registered users and 3 guests


You cannot post new topics in this forum
You cannot reply to topics in this forum
You cannot edit your posts in this forum
You cannot delete your posts in this forum
You cannot post attachments in this forum

Search for:
Яндекс.Метрика
Powered by phpBB © 2000, 2002, 2005, 2007 phpBB Group