\m/ 80's metal \m/

Информационно-аналитический форум "80 см пыли" (In Search We Trust) "У нас никто никуда не спешит"
Me For You - http://me-4u.com
It is currently 24 Jul 2019

All times are UTC + 3 hours

Spoiler
Chat - temporary registration for foreign users (please leave your application here)







Post new topic Reply to topic  [ 13 posts ] 
Author Message
 
PostPosted: 14 Sep 2010 
ыыыы
User avatar
Joined: 17 May 2009
Posts: 952
Lоcаtion: Пушкино, МО
Age: 40
Name: Дмитрий
Image


Жанр: Heavy Metal
Происхождение исполнителя: Англия
Год издания: 1983
Год издания данного носителя: 1985
Страна-производитель носителя: Япония для Голландии
Аудио кодек: FLAC
Тип рипа: image+.cue
Битрейт аудио: lossless
Продолжительность: 44:06
Рип: Собственный
Лейбл: POWERSTATION/ROADRUNNER
Каталоговый номер: RR 34 9883
Матрица: RR 34 9883 X-197 1A1 (CTA)

Треклист:
1. Powergame 04:12
2. Break The Chains 05:07
3. If Heaven Is Hell 06:04
4. On Through The Night 07:29
5. Killer City 05:47
6. Liar 05:35
7. Tonight 04:03
8. Sunrise In Tokyo 05:48

"Куй"
REM GENRE "Hard Rock"
REM DATE 1983
REM DISCID 580A5508
REM COMMENT "ExactAudioCopy v0.99pb5"
PERFORMER "Tokyo Blade"
TITLE "Tokyo Blade [RR 34 9883]"
FILE "Tokyo Blade - Tokyo Blade [RR 34 9883].flac" WAVE
TRACK 01 AUDIO
TITLE "Powergame"
PERFORMER "Tokyo Blade"
INDEX 01 00:00:00
TRACK 02 AUDIO
TITLE "Break the chains"
PERFORMER "Tokyo Blade"
INDEX 01 04:12:27
TRACK 03 AUDIO
TITLE "If heaven is hell"
PERFORMER "Tokyo Blade"
INDEX 00 09:19:07
INDEX 01 09:19:32
TRACK 04 AUDIO
TITLE "On through the night"
PERFORMER "Tokyo Blade"
INDEX 01 15:23:52
TRACK 05 AUDIO
TITLE "Killer city"
PERFORMER "Tokyo Blade"
INDEX 00 22:52:40
INDEX 01 22:53:12
TRACK 06 AUDIO
TITLE "Liar"
PERFORMER "Tokyo Blade"
INDEX 01 28:40:37
TRACK 07 AUDIO
TITLE "Tonight"
PERFORMER "Tokyo Blade"
INDEX 01 34:15:25
TRACK 08 AUDIO
TITLE "Sunrise in Tokyo"
PERFORMER "Tokyo Blade"
INDEX 00 38:17:52
INDEX 01 38:18:02


"Лог"
Exact Audio Copy V0.99 prebeta 5 from 4. May 2009

Отчёт EAC об извлечении, выполненном 14. сентября 2010, 10:11

Tokyo Blade / Tokyo Blade [RR 34 9883]

Дисковод: Optiarc DVD RW AD-7200A Adapter: 1 ID: 0

Режим чтения : Достоверность
Использование точного потока : Да
Отключение кэша аудио : Да
Использование указателей C2 : Нет

Коррекция смещения при чтении : 48
Способность читать области Lead-in и Lead-out : Нет
Заполнение пропущенных сэмплов тишиной : Да
Удаление блоков с тишиной в начале и конце : Нет
При вычислениях CRC использовались нулевые сэмплы : Да
Интерфейс : Встроенный Win32-интерфейс для Win NT/2000

Выходной формат : Пользовательский кодировщик
Выбранный битрейт : 128 kBit/s
Качество : Высокий
Добавление ID3-тэга : Нет
Утилита сжатия : C:\Program Files\Exact Audio Copy\Flac\flac.exe
Дополнительные параметры : -8 -V -T "artist=%a" -T "title=%t" -T "album=%g" -T "date=%y" -T "tracknumber=%n" -T "genre=%m" -T "comment=EAC


TOC извлечённого CD

Трек | Старт | Длительность | Начальный сектор | Конечный сектор
---------------------------------------------------------------------
1 | 0:00.00 | 4:12.27 | 0 | 18926
2 | 4:12.27 | 5:07.05 | 18927 | 41956
3 | 9:19.32 | 6:04.20 | 41957 | 69276
4 | 15:23.52 | 7:29.35 | 69277 | 102986
5 | 22:53.12 | 5:47.25 | 102987 | 129036
6 | 28:40.37 | 5:34.63 | 129037 | 154149
7 | 34:15.25 | 4:02.52 | 154150 | 172351
8 | 38:18.02 | 5:47.48 | 172352 | 198424


Характеристики диапазона извлечения и сообщения об ошибках

Выбранный диапазон

Имя файла Y:\Музыка\Tokyo Blade\1983 Tokyo Blade\Tokyo Blade - Tokyo Blade [RR 34 9883].wav

Пиковый уровень 100.0 %
Качество диапазона 100.0 %
CRC теста 685CCF17
CRC копии 685CCF17
Копирование... OK

Ошибок не произошло


AccurateRip: сводка

Трек 1 точное извлечение (доверие 1) [70CF80AD]
Трек 2 точное извлечение (доверие 1) [7EC51C57]
Трек 3 точное извлечение (доверие 1) [0328DCF2]
Трек 4 точное извлечение (доверие 1) [637F341B]
Трек 5 точное извлечение (доверие 1) [BF18D423]
Трек 6 точное извлечение (доверие 1) [D9260C52]
Трек 7 точное извлечение (доверие 1) [0E7624BF]
Трек 8 точное извлечение (доверие 1) [25B7B37E]

Все треки извлечены точно

Конец отчёта


Состав:
Alan Marsh: Vocals
Andy Boulton: Guitar
John Wiggins: Guitar (except track 3)
Ray Dismore: Guitar (track 3 only)
Andy Robbins: Bass
Steve Pierce: Drums

RR 34 9883

_________________
Витасу до Даймонда как Алсу до Руссоса | При переразмещении - спрашивать разрешение!!


Last edited by iezuit on 18 Sep 2010, edited 3 times in total.

Top
 Profile  
 
 
PostPosted: 14 Sep 2010 
ыыыы
User avatar
Joined: 17 May 2009
Posts: 952
Lоcаtion: Пушкино, МО
Age: 40
Name: Дмитрий
Диск приехал с ужасной полиграфией, так что...
Жаль, что этот http://cgi.ebay.at/ws/eBayISAPI.dll?Vie ... 0618205784 не увидел ((((

_________________
Витасу до Даймонда как Алсу до Руссоса | При переразмещении - спрашивать разрешение!!


Top
 Profile  
 
 
PostPosted: 14 Sep 2010 
А может смените мне статус?..
Joined: 03 Jul 2009
Posts: 877
Lоcаtion: Serbia
Name: Laki
Thanks very much. Excellent cd.


Do you have Savage - Hyperactive cd?


Top
 Profile E-mail  
 
 
PostPosted: 14 Sep 2010 
ыыыы
User avatar
Joined: 17 May 2009
Posts: 952
Lоcаtion: Пушкино, МО
Age: 40
Name: Дмитрий
Not yet

_________________
Витасу до Даймонда как Алсу до Руссоса | При переразмещении - спрашивать разрешение!!


Top
 Profile  
 
 
PostPosted: 16 Sep 2010 
Работнечег
User avatar
Joined: 28 Aug 2007
Posts: 5919
Lоcаtion: г. Москва
Age: 30
Name: Дима
Спасибо Дим! ОТличный альбом! Теперь будет в 3ёх вариантах :smile:


Top
 Profile E-mail  
 
 
PostPosted: 16 Sep 2010 
А может смените мне статус?..
User avatar
Joined: 24 Dec 2008
Posts: 645
Age: 45
Name: Дмитрий
Спасибо, и этот прослушаю.. :meloman:


Top
 Profile  
 
 
PostPosted: 20 Sep 2010 
Gretzky must die
User avatar
Joined: 16 Sep 2010
Posts: 265
Lоcаtion: Московская обл.
Name: Андрей
Спасибо Дима ! Отличнейшая группа ! В ремастированном виде - не нравится. Бубнит очень. А тут - такой праздник ! :thanx:


Top
 Profile  
 
 
PostPosted: 20 Sep 2010 
Работнечег
User avatar
Joined: 28 Aug 2007
Posts: 5919
Lоcаtion: г. Москва
Age: 30
Name: Дима
andreycheb wrote:
В ремастированном виде - не нравится. Бубнит очень.

Андрей , а ты ремастер какого года слушал?


Top
 Profile E-mail  
 
 
PostPosted: 20 Sep 2010 
Gretzky must die
User avatar
Joined: 16 Sep 2010
Posts: 265
Lоcаtion: Московская обл.
Name: Андрей
1997


Top
 Profile  
 
 
PostPosted: 24 Sep 2010 
Работнечег
User avatar
Joined: 28 Aug 2007
Posts: 5919
Lоcаtion: г. Москва
Age: 30
Name: Дима
andreycheb wrote:
1997

Фух..а то я уж испугался, что 2010 :smile:


Top
 Profile E-mail  
 
 
PostPosted: 09 Sep 2011 
Зарегился вот...
Joined: 18 Jul 2009
Posts: 8
Name: steeve
thanks


Top
 Profile E-mail  
 
 
PostPosted: 09 Sep 2011 
Хиппей (support team)
User avatar
Joined: 30 Jul 2007
Posts: 113651
Lоcаtion: Киев (Kyiv, UA)
Age: 46
Name: Andrey
Вот же ж... Приучили народ импортный, что после спасибки ссылка появится. А тута и хренушки :pardon:

Нашёл у себя только альбом от 84 года в лосе, этот кто-то может перезалить?

_________________


Top
 Profile E-mail  
 
 
PostPosted: 09 Sep 2011 
Хиппей (support team)
User avatar
Joined: 30 Jul 2007
Posts: 113651
Lоcаtion: Киев (Kyiv, UA)
Age: 46
Name: Andrey
Ага, оба здесь есть, как всегда http://rutracker.org/forum/viewtopic.php?t=3163552 :dance:

_________________


Top
 Profile E-mail  
 
Display posts from previous:  Sort by  
Post new topic Reply to topic  [ 13 posts ] 

All times are UTC + 3 hours


Who is online

Users browsing this forum: No registered users and 1 guest


You cannot post new topics in this forum
You cannot reply to topics in this forum
You cannot edit your posts in this forum
You cannot delete your posts in this forum
You cannot post attachments in this forum

Search for:
Яндекс.Метрика
Powered by phpBB © 2000, 2002, 2005, 2007 phpBB Group