\m/ 80's metal \m/

Информационно-аналитический форум "80 см пыли" (In Search We Trust) "У нас никто никуда не спешит"
Me For You - http://me-4u.com
It is currently 16 Sep 2019

All times are UTC + 3 hours

Spoiler
Chat - temporary registration for foreign users (please leave your application here)







Post new topic Reply to topic  [ 17 posts ] 
Author Message
 
PostPosted: 18 Aug 2010 
А может смените мне статус?..
User avatar
Joined: 17 Jan 2008
Posts: 892
Lоcаtion: Пенза
Age: 41
Name: Денис
Thunder Way -1993- The Order Executors (demo)

Image

1. Nothing Else to Try 05:29
2. The Order Executors 06:10
3. The Last Warrior 04:10
4. Unexpected Sufferings 05:56
5. Dancing with Beasts 03:50
6. The Devil's Rule 07:40
7. Crimes With Prepensation 08:48
8. Victims of Confusion 05:30
9. Future Punishments 06:07

Лось взят на ММТ.Рип сделан roytheiron666

Log
Exact Audio Copy V0.99 prebeta 4 from 23. January 2008

EAC extraction logfile from 14. June 2010, 9:25

Thunder Way / The Order Executors

Used drive : PIONEER DVD-RW DVR-216D Adapter: 0 ID: 1

Read mode : Secure
Utilize accurate stream : Yes
Defeat audio cache : Yes
Make use of C2 pointers : No

Read offset correction : 96
Overread into Lead-In and Lead-Out : No
Fill up missing offset samples with silence : Yes
Delete leading and trailing silent blocks : No
Null samples used in CRC calculations : Yes
Used interface : Installed external ASPI interface

Used output format : Monkey's Audio Lossless Encoder
Selected bitrate : High Lossless Compression
Quality : High
Add ID3 tag : Yes
Command line compressor : C:\Program Files\Exact Audio Copy\MAC.EXE


TOC of the extracted CD

Track | Start | Length | Start sector | End sector
---------------------------------------------------------
1 | 0:00.00 | 5:28.60 | 0 | 24659
2 | 5:28.60 | 6:06.23 | 24660 | 52132
3 | 11:35.08 | 4:17.42 | 52133 | 71449
4 | 15:52.50 | 5:53.56 | 71450 | 97980
5 | 21:46.31 | 4:05.24 | 97981 | 116379
6 | 25:51.55 | 7:39.12 | 116380 | 150816
7 | 33:30.67 | 8:43.54 | 150817 | 190095
8 | 42:14.46 | 5:26.58 | 190096 | 214603
9 | 47:41.29 | 5:58.03 | 214604 | 241456


Range status and errors

Selected range

Filename F:\MUSIC\CD_IMAGE_34\COVERS OF WRITED CD\THUNDER WAY [1993] [TAPE] The Order Executors\Thunder Way - The Order Executors.wav

Peak level 100.0 %
Range quality 100.0 %
Copy CRC ED11F0D1
Copy OK

No errors occurred


AccurateRip summary

Track 1 not present in database
Track 2 not present in database
Track 3 not present in database
Track 4 not present in database
Track 5 not present in database
Track 6 not present in database
Track 7 not present in database
Track 8 not present in database
Track 9 not present in database

None of the tracks are present in the AccurateRip database

End of status report


Cue
REM GENRE "Heavy Metal"
REM DATE 1993
REM DISCID 720C9309
REM COMMENT "ExactAudioCopy v0.99pb4"
PERFORMER "Thunder Way"
TITLE "The Order Executors"
FILE "Thunder Way - The Order Executors.ape" WAVE
TRACK 01 AUDIO
TITLE "Nothing Else To Try"
PERFORMER "Thunder Way"
INDEX 01 00:00:00
TRACK 02 AUDIO
TITLE "The Order Executors"
PERFORMER "Thunder Way"
INDEX 00 05:28:48
INDEX 01 05:28:60
TRACK 03 AUDIO
TITLE "The Last Warrior"
PERFORMER "Thunder Way"
INDEX 00 11:35:03
INDEX 01 11:35:08
TRACK 04 AUDIO
TITLE "Unexpected Sufferings"
PERFORMER "Thunder Way"
INDEX 01 15:52:50
TRACK 05 AUDIO
TITLE "Dancing With Beasts"
PERFORMER "Thunder Way"
INDEX 01 21:46:31
TRACK 06 AUDIO
TITLE "The Devil's Rule"
PERFORMER "Thunder Way"
INDEX 01 25:51:55
TRACK 07 AUDIO
TITLE "Crimes With Prepensation"
PERFORMER "Thunder Way"
INDEX 01 33:30:67
TRACK 08 AUDIO
TITLE "Victims Of Confusion"
PERFORMER "Thunder Way"
INDEX 01 42:14:46
TRACK 09 AUDIO
TITLE "Future Punishments"
PERFORMER "Thunder Way"
INDEX 01 47:41:29


Narod


Top
 Profile  
 
 
PostPosted: 18 Aug 2010 
спирт 100%
User avatar
Joined: 22 Sep 2008
Posts: 4468
Age: 48
Name: Саня
Денис,БОЛЬШОЕ СПАСИБО!!! :thanx: :true: :true: :true:


Top
 Profile  
 
 
PostPosted: 19 Aug 2010 
А может смените мне статус?..
User avatar
Joined: 28 Oct 2009
Posts: 662
Lоcаtion: Sweden
Age: 32
Name: Emil
:true: :true: :true: :thanx: :thanx: :thanx: :thanx: NICE!

_________________
http://strappadometalblog.blogspot.com | http://heavymetalrarities.com/forum


Top
 Profile E-mail  
 
 
PostPosted: 19 Aug 2010 
труъ антисионист
User avatar
Joined: 01 Aug 2007
Posts: 4544
Lоcаtion: Откуда и большинство из нас
Age: 38
Name: Дядя Вова
[youtube]<object width="480" height="385"><param name="movie" value="http://www.youtube.com/v/53cJ8UEfDxw?fs=1&amp;hl=ru_RU"></param><param name="allowFullScreen" value="true"></param><param name="allowscriptaccess" value="always"></param><embed src="http://www.youtube.com/v/53cJ8UEfDxw?fs=1&amp;hl=ru_RU" type="application/x-shockwave-flash" allowscriptaccess="always" allowfullscreen="true" width="480" height="385"></embed></object>[/youtube]

_________________
Image
Image


Top
 Profile  
 
 
PostPosted: 19 Aug 2010 
Хиппей (support team)
User avatar
Joined: 30 Jul 2007
Posts: 114353
Lоcаtion: Киев (Kyiv, UA)
Age: 46
Name: Andrey
А так называемый селф-ремастер кто-то сравнивал с оригиналом?
Заливать его или нунафек? :vic:

_________________


Top
 Profile E-mail  
 
 
PostPosted: 29 Aug 2010 
Хиппей (support team)
User avatar
Joined: 30 Jul 2007
Posts: 114353
Lоcаtion: Киев (Kyiv, UA)
Age: 46
Name: Andrey
THUNDER WAY [1993] [TAPE] [Self Remastered-2010] The Order Executors [EAC-APE] By RoYtheIroN666 [MeTaLMaDNess.TeaM].rar

Image

MultiUp l Narod

log
Exact Audio Copy V0.99 prebeta 4 from 23. January 2008

EAC extraction logfile from 14. June 2010, 9:47

Thunder Way / The Order Executors (Remaster)

Used drive : PIONEER DVD-RW DVR-216D Adapter: 0 ID: 1

Read mode : Secure
Utilize accurate stream : Yes
Defeat audio cache : Yes
Make use of C2 pointers : No

Read offset correction : 96
Overread into Lead-In and Lead-Out : No
Fill up missing offset samples with silence : Yes
Delete leading and trailing silent blocks : No
Null samples used in CRC calculations : Yes
Used interface : Installed external ASPI interface

Used output format : Monkey's Audio Lossless Encoder
Selected bitrate : High Lossless Compression
Quality : High
Add ID3 tag : Yes
Command line compressor : C:\Program Files\Exact Audio Copy\MAC.EXE


TOC of the extracted CD

Track | Start | Length | Start sector | End sector
---------------------------------------------------------
1 | 0:00.00 | 5:24.47 | 0 | 24346
2 | 5:24.47 | 6:02.57 | 24347 | 51553
3 | 11:27.29 | 4:11.55 | 51554 | 70433
4 | 15:39.09 | 5:49.02 | 70434 | 96610
5 | 21:28.11 | 3:58.67 | 96611 | 114527
6 | 25:27.03 | 7:33.50 | 114528 | 148552
7 | 33:00.53 | 8:37.66 | 148553 | 187393
8 | 41:38.44 | 5:23.25 | 187394 | 211643
9 | 47:01.69 | 5:57.46 | 211644 | 238464


Range status and errors

Selected range

Filename F:\MUSIC\CD_IMAGE_34\COVERS OF WRITED CD\THUNDER WAY [1993] [TAPE] The Order Executors\Thunder Way - The Order Executors (Remaster).wav

Peak level 97.7 %
Range quality 99.9 %
Copy CRC E1738F51
Copy OK

No errors occurred


AccurateRip summary

Track 1 not present in database
Track 2 not present in database
Track 3 not present in database
Track 4 not present in database
Track 5 not present in database
Track 6 not present in database
Track 7 not present in database
Track 8 not present in database
Track 9 not present in database

None of the tracks are present in the AccurateRip database

End of status report


cue
REM GENRE "Heavy Metal"
REM DATE 1993
REM DISCID 790C6B09
REM COMMENT "ExactAudioCopy v0.99pb4"
PERFORMER "Thunder Way"
TITLE "The Order Executors (Remaster)"
FILE "Thunder Way - The Order Executors (Remaster).ape" WAVE
TRACK 01 AUDIO
TITLE "Nothing Else To Try"
PERFORMER "Thunder Way"
INDEX 01 00:00:00
TRACK 02 AUDIO
TITLE "The Order Executors"
PERFORMER "Thunder Way"
INDEX 01 05:24:47
TRACK 03 AUDIO
TITLE "The Last Warrior"
PERFORMER "Thunder Way"
INDEX 01 11:27:29
TRACK 04 AUDIO
TITLE "Unexpected Sufferings"
PERFORMER "Thunder Way"
INDEX 01 15:39:09
TRACK 05 AUDIO
TITLE "Dancing With Beasts"
PERFORMER "Thunder Way"
INDEX 01 21:28:11
TRACK 06 AUDIO
TITLE "The Devil's Rule"
PERFORMER "Thunder Way"
INDEX 00 25:27:00
INDEX 01 25:27:03
TRACK 07 AUDIO
TITLE "Crimes With Prepensation"
PERFORMER "Thunder Way"
INDEX 01 33:00:53
TRACK 08 AUDIO
TITLE "Victims Of Confusion"
PERFORMER "Thunder Way"
INDEX 01 41:38:44
TRACK 09 AUDIO
TITLE "Future Punishments"
PERFORMER "Thunder Way"
INDEX 01 47:01:69

_________________


Top
 Profile E-mail  
 
 
PostPosted: 29 Aug 2010 
А может смените мне статус?..
User avatar
Joined: 28 Oct 2009
Posts: 662
Lоcаtion: Sweden
Age: 32
Name: Emil
interesting! thankyou Scatterbrain :thanx:

_________________
http://strappadometalblog.blogspot.com | http://heavymetalrarities.com/forum


Top
 Profile E-mail  
 
 
PostPosted: 29 Aug 2010 
Хиппей (support team)
User avatar
Joined: 30 Jul 2007
Posts: 114353
Lоcаtion: Киев (Kyiv, UA)
Age: 46
Name: Andrey
Emil write to plz, if possible on both releases - where better quality?
I still do not listen ... :oops:

_________________


Top
 Profile E-mail  
 
 
PostPosted: 29 Aug 2010 
А может смените мне статус?..
User avatar
Joined: 28 Oct 2009
Posts: 662
Lоcаtion: Sweden
Age: 32
Name: Emil
The one you posted! it was clearer and the volume was increased a bit. :true:
Also a lot of scans included to make a nice CD-R copy!

_________________
http://strappadometalblog.blogspot.com | http://heavymetalrarities.com/forum


Top
 Profile E-mail  
 
 
PostPosted: 29 Aug 2010 
Хиппей (support team)
User avatar
Joined: 30 Jul 2007
Posts: 114353
Lоcаtion: Киев (Kyiv, UA)
Age: 46
Name: Andrey
Well :true:
Thanx to RoYtheIroN666 :thanx:

_________________


Top
 Profile E-mail  
 
 
PostPosted: 13 Sep 2010 
Thrasher
User avatar
Joined: 07 Oct 2007
Posts: 2782
Lоcаtion: Russia, Moscow
Age: 35
Name: Drunk & Evil
Спасибо Денис и Андрюха, заберу обе версии :thanx:

_________________
ВОДКА, БАБЫ И БЛЮЗ / 40° till death... :bodun:
One time we saw some hookers, but when we got closer, we realised it was Mötley Crüe. ©


Top
 Profile  
 
 
PostPosted: 12 Oct 2011 
Зарегился вот...
User avatar
Joined: 12 Oct 2011
Posts: 1
Lоcаtion: Greece
Name: Death!
Just to let you know what was uploaded on metalmadness doesnt have the normal speed, RoyTheIron666 is a personal friend and its the guy who ripped this.
He understood that a mistake had happened when he had already uploaded it on metalmadness.

_________________
http://noisy-subculture.blogspot.com


Top
 Profile E-mail  
 
 
PostPosted: 12 Oct 2011 
ТрэшЭрос
User avatar
Joined: 18 Jul 2011
Posts: 2304
Lоcаtion: Гулькевичи
Age: 44
Name: Александр
...и немного видео 1993 года:
http://www.nme.com/nme-video/youtube/id ... h/executor :true:

После просмотра клипа число скачиваний резко пошло вверх :crazy:

_________________
Thrash no trash!!!


Top
 Profile E-mail  
 
 
PostPosted: 12 Oct 2011 
ТрэшЭрос
User avatar
Joined: 18 Jul 2011
Posts: 2304
Lоcаtion: Гулькевичи
Age: 44
Name: Александр
1-ая Народная ссыль того, :esel: ...

_________________
Thrash no trash!!!


Top
 Profile E-mail  
 
 
PostPosted: 12 Oct 2011 
Хиппей (support team)
User avatar
Joined: 30 Jul 2007
Posts: 114353
Lоcаtion: Киев (Kyiv, UA)
Age: 46
Name: Andrey
Угу, только там рип кривой, насколько я понял. Так что :pardon:

_________________


Top
 Profile E-mail  
 
 
PostPosted: 12 Oct 2011 
ТрэшЭрос
User avatar
Joined: 18 Jul 2011
Posts: 2304
Lоcаtion: Гулькевичи
Age: 44
Name: Александр
Саныч, спасибо за не "Нунафек"! :thanx: :true: :true: :true:

_________________
Thrash no trash!!!


Top
 Profile E-mail  
 
 
PostPosted: 22 Oct 2011 
Персональный статус
Joined: 19 Jul 2010
Posts: 282
Lоcаtion: Москва
Name: Вадим
Вот это весчь!!! Спасибо за просвещение!


Top
 Profile E-mail  
 
Display posts from previous:  Sort by  
Post new topic Reply to topic  [ 17 posts ] 

All times are UTC + 3 hours


Who is online

Users browsing this forum: No registered users and 1 guest


You cannot post new topics in this forum
You cannot reply to topics in this forum
You cannot edit your posts in this forum
You cannot delete your posts in this forum
You cannot post attachments in this forum

Search for:
Яндекс.Метрика
Powered by phpBB © 2000, 2002, 2005, 2007 phpBB Group