\m/ 80's metal \m/

Информационно-аналитический форум "80 см пыли" (In Search We Trust) "У нас никто никуда не спешит"
Me For You - http://me-4u.com
It is currently 17 Jul 2019

All times are UTC + 3 hours

Spoiler
Chat - temporary registration for foreign users (please leave your application here)







Post new topic Reply to topic  [ 12 posts ] 
Author Message
 
PostPosted: 25 Jul 2010 
ыыыы
User avatar
Joined: 17 May 2009
Posts: 952
Lоcаtion: Пушкино, МО
Age: 40
Name: Дмитрий
Image


Жанр: Progressive Rock
Происхождение исполнителя: Канада
Год издания: 1984
Год издания данного носителя: 2007
Страна-производитель носителя: Япония
Аудио кодек: FLAC
Тип рипа: image+.cue
Битрейт аудио: lossless
Продолжительность: 41:23
Рип: Собственный
Лейбл: MCA/AIR MAIL
Каталоговый номер: AIRAC-1434
Матрица: AIRAC-1434 1W V IFPI L244 (JVC)

Треклист:
Spellbound 05:13
Rock Out, Roll On 05:17
Cool Down 04:51
Follow Your Heart 03:35
Time Goes By 06:02
Midsummer's Daydream 01:41
Time Canon 01:33
Killing Time 4:18
Stranger in a Strange Land 05:13
Little Boy Blues 03:41

"Куй"
REM GENRE Rock
REM DATE 1984
REM DISCID 7E09B20A
REM COMMENT "ExactAudioCopy v0.99pb5"
PERFORMER "Triumph"
TITLE "Thunder Seven [AIRAC-1434]"
FILE "Triumph - Thunder Seven [AIRAC-1434].flac" WAVE
TRACK 01 AUDIO
TITLE "Spellbound"
PERFORMER "Triumph"
INDEX 01 00:00:00
TRACK 02 AUDIO
TITLE "Rock Out, Roll On"
PERFORMER "Triumph"
INDEX 01 05:13:10
TRACK 03 AUDIO
TITLE "Cool Down"
PERFORMER "Triumph"
INDEX 01 10:30:00
TRACK 04 AUDIO
TITLE "Follow Your Heart"
PERFORMER "Triumph"
INDEX 01 15:20:60
TRACK 05 AUDIO
TITLE "Time Goes By"
PERFORMER "Triumph"
INDEX 01 18:55:52
TRACK 06 AUDIO
TITLE "Midsummer's Daydream"
PERFORMER "Triumph"
INDEX 01 24:57:39
TRACK 07 AUDIO
TITLE "Time Canon"
PERFORMER "Triumph"
INDEX 01 26:38:04
TRACK 08 AUDIO
TITLE "Killing Time"
PERFORMER "Triumph"
INDEX 01 28:11:29
TRACK 09 AUDIO
TITLE "Stranger in a Strange Land"
PERFORMER "Triumph"
INDEX 01 32:29:01
TRACK 10 AUDIO
TITLE "Little Boy Blues"
PERFORMER "Triumph"
INDEX 01 37:42:15


"Лог"
Exact Audio Copy V0.99 prebeta 5 from 4. May 2009

Отчёт EAC об извлечении, выполненном 25. июля 2010, 14:25

Triumph / Thunder Seven [AIRAC-1434]

Дисковод: MATSHITADVD-RAM UJ-850S Adapter: 0 ID: 0

Режим чтения : Достоверность
Использование точного потока : Да
Отключение кэша аудио : Да
Использование указателей C2 : Нет

Коррекция смещения при чтении : 102
Способность читать области Lead-in и Lead-out : Нет
Заполнение пропущенных сэмплов тишиной : Да
Удаление блоков с тишиной в начале и конце : Нет
При вычислениях CRC использовались нулевые сэмплы : Да
Интерфейс : Установленный внешний ASPI-интерфейс

Выходной формат : Пользовательский кодировщик
Выбранный битрейт : 128 kBit/s
Качество : Высокий
Добавление ID3-тэга : Нет
Утилита сжатия : C:\Program Files\Exact Audio Copy\Flac\flac.exe
Дополнительные параметры : -6 -V -T "artist=%a" -T "title=%t" -T "album=%g" -T "date=%y" -T "tracknumber=%n" -T "genre=%m" -T "comment=EAC 0.99beta5 / FLAC 1.1.0 q6" %s


TOC извлечённого CD

Трек | Старт | Длительность | Начальный сектор | Конечный сектор
---------------------------------------------------------------------
1 | 0:00.00 | 5:13.10 | 0 | 23484
2 | 5:13.10 | 5:16.65 | 23485 | 47249
3 | 10:30.00 | 4:50.60 | 47250 | 69059
4 | 15:20.60 | 3:34.67 | 69060 | 85176
5 | 18:55.52 | 6:01.62 | 85177 | 112313
6 | 24:57.39 | 1:40.40 | 112314 | 119853
7 | 26:38.04 | 1:33.25 | 119854 | 126853
8 | 28:11.29 | 4:17.47 | 126854 | 146175
9 | 32:29.01 | 5:13.14 | 146176 | 169664
10 | 37:42.15 | 3:40.54 | 169665 | 186218


Характеристики диапазона извлечения и сообщения об ошибках

Выбранный диапазон

Имя файла Y:\Музыка\Triumph\1984 Thunder Seven\Triumph - Thunder Seven [AIRAC-1434].wav

Пиковый уровень 96.6 %
Качество диапазона 100.0 %
CRC копии F3FB6B41
Копирование... OK

Ошибок не произошло


AccurateRip: сводка

Трек 1 нет в базе данных
Трек 2 нет в базе данных
Трек 3 нет в базе данных
Трек 4 нет в базе данных
Трек 5 нет в базе данных
Трек 6 нет в базе данных
Трек 7 нет в базе данных
Трек 8 нет в базе данных
Трек 9 нет в базе данных
Трек 10 нет в базе данных

Ни одного трека нет в базе AccurateRip

Конец отчёта


Состав:
Rik Emmett: Vocals, guitars, bass guitar, music sequencer, synthesizer, clavinet, bass pedals
Gil Moore: Drums, percussion, vocals
Michael Levine: Bass guitar, keyboards, synthesizers, organ, clavinet, bass pedals
Lou Pomanti: Synthesizer, keyboards, programming, producer
Al Rogers: Background vocals
Sandee Bathgate: Background vocals
Dave Dickson: Background vocals
Herb Moore: Background vocals
Andy Holland: Background vocals

AIRAC-1434

phpBB [youtube]

_________________
Витасу до Даймонда как Алсу до Руссоса | При переразмещении - спрашивать разрешение!!


Last edited by iezuit on 25 Jul 2010, edited 2 times in total.

Top
 Profile  
 
 
PostPosted: 25 Jul 2010 
Персональный статус
Joined: 14 May 2010
Posts: 236
Age: 37
Name: Денис
жесть. прогрессив пошёл. Спасибо Дмитрий!!!


Top
 Profile  
 
 
PostPosted: 25 Jul 2010 
ыыыы
User avatar
Joined: 17 May 2009
Posts: 952
Lоcаtion: Пушкино, МО
Age: 40
Name: Дмитрий
Почему- пошел? Квинсрайх еще раньше был :umnik:
Тут надо уровень снижать, ибо будет зашкал

_________________
Витасу до Даймонда как Алсу до Руссоса | При переразмещении - спрашивать разрешение!!


Last edited by iezuit on 25 Jul 2010, edited 1 time in total.

Top
 Profile  
 
 
PostPosted: 25 Jul 2010 
Персональный статус
Joined: 14 May 2010
Posts: 236
Age: 37
Name: Денис
ну да.. так то давно было. и вообще редко бывает.

угу, наверное расплата за 2007 год издания.


Last edited by disabled on 25 Jul 2010, edited 1 time in total.

Top
 Profile  
 
 
PostPosted: 25 Jul 2010 
ыыыы
User avatar
Joined: 17 May 2009
Posts: 952
Lоcаtion: Пушкино, МО
Age: 40
Name: Дмитрий
а у меня его больше и нет :nunu:

_________________
Витасу до Даймонда как Алсу до Руссоса | При переразмещении - спрашивать разрешение!!


Top
 Profile  
 
 
PostPosted: 25 Jul 2010 
Хиппей (support team)
User avatar
Joined: 30 Jul 2007
Posts: 113522
Lоcаtion: Киев (Kyiv, UA)
Age: 46
Name: Andrey
Thank You Dmitriy :meloman:

_________________


Top
 Profile E-mail  
 
 
PostPosted: 25 Jul 2010 
ыыыы
User avatar
Joined: 17 May 2009
Posts: 952
Lоcаtion: Пушкино, МО
Age: 40
Name: Дмитрий
Scatterbrain
Da ne za chto!! :crazy:

_________________
Витасу до Даймонда как Алсу до Руссоса | При переразмещении - спрашивать разрешение!!


Top
 Profile  
 
 
PostPosted: 25 Jul 2010 
дядя Миша
User avatar
Joined: 17 Oct 2008
Posts: 3150
Lоcаtion: USSR
Age: 56
Name: Khy
Quote:
Тут надо уровень снижать, ибо будет зашкал


А где его снижать , уровень? И где может быть зашкал ?
у меня кста винил этот есть , и рип я как то делал давно.


Top
 Profile  
 
 
PostPosted: 25 Jul 2010 
ыыыы
User avatar
Joined: 17 May 2009
Posts: 952
Lоcаtion: Пушкино, МО
Age: 40
Name: Дмитрий
VARVAAR
я в фубаре поставил автоуровень- зазвучало нормально. Есть рип-хорошо, скачивать не надо :umnik:

_________________
Витасу до Даймонда как Алсу до Руссоса | При переразмещении - спрашивать разрешение!!


Top
 Profile  
 
 
PostPosted: 25 Jul 2010 
Персональный статус
Joined: 14 May 2010
Posts: 236
Age: 37
Name: Денис
ээ.. автоуровень.. это в эквалайзере? а то полез сейчас у меня он (эквалайзер) вообще выключен. :shok:

спэктр
Image


Last edited by disabled on 25 Jul 2010, edited 2 times in total.

Top
 Profile  
 
 
PostPosted: 25 Jul 2010 
Прокъмитолист
User avatar
Joined: 12 Aug 2007
Posts: 6574
Lоcаtion: Санктъ-Петербуркъ
Age: 51
Name: Олекъ
возьму наверно. а то как-то совсем почти не знаком с Триумфом, только пара альбомов есть. Дим, спасибо! :thanx: :true:

_________________
прокъметол - это музыко, от которово есть прок (ы)


Top
 Profile  
 
 
PostPosted: 25 Jul 2010 
ыыыы
User avatar
Joined: 17 May 2009
Posts: 952
Lоcаtion: Пушкино, МО
Age: 40
Name: Дмитрий
disabled
ага, там. Я обычно уровень поднимаю а тип кривой делаю годной для прослушивания рок-музыки
spiralarch
надо брать! :true:

_________________
Витасу до Даймонда как Алсу до Руссоса | При переразмещении - спрашивать разрешение!!


Top
 Profile  
 
Display posts from previous:  Sort by  
Post new topic Reply to topic  [ 12 posts ] 

All times are UTC + 3 hours


Who is online

Users browsing this forum: church and 1 guest


You cannot post new topics in this forum
You cannot reply to topics in this forum
You cannot edit your posts in this forum
You cannot delete your posts in this forum
You cannot post attachments in this forum

Search for:
Яндекс.Метрика
Powered by phpBB © 2000, 2002, 2005, 2007 phpBB Group