\m/ 80's metal \m/

Информационно-аналитический форум "80 см пыли" (In Search We Trust) "У нас никто никуда не спешит"
Me For You - http://me-4u.com
It is currently 18 Jul 2019

All times are UTC + 3 hours

Spoiler
Chat - temporary registration for foreign users (please leave your application here)







Post new topic Reply to topic  [ 11 posts ] 
Author Message
 
PostPosted: 22 Jul 2010 
ыыыы
User avatar
Joined: 17 May 2009
Posts: 952
Lоcаtion: Пушкино, МО
Age: 40
Name: Дмитрий
Image


Жанр: Hard Rock
Происхождение исполнителя: Германия
Год издания: 1981
Год издания данного носителя: 1986
Страна-производитель носителя: Япония
Аудио кодек: FLAC
Тип рипа: image+.cue
Битрейт аудио: lossless
Продолжительность: 37:17
Рип: Собственный
Лейбл: CHRYSALIS/TOSHIBA-EMI
Каталоговый номер: CP32-5091
Матрица: CP32-5091 11 +++++ (SONY)

Треклист:
1. Ready to Rock 03:28
2. Attack of the Mad Axeman 04:20
3. On and On 04:44
4. Let Sleeping Dogs Lie 05:24
5. I Want More 07:01
6. Never Trust a Stranger 04:29
7. Looking for Love 04:06
8. Secondary Motion 03:46

"Куй"
REM GENRE "Hard Rock"
REM DATE 1981
REM DISCID 6A08BD08
REM COMMENT "ExactAudioCopy v0.99pb5"
PERFORMER "The Michael Schenker Group"
TITLE "M S G [CP32-5091]"
FILE "The Michael Schenker Group - M S G [CP32-5091].flac" WAVE
TRACK 01 AUDIO
TITLE "Are You Ready to Rock"
PERFORMER "The Michael Schenker Group"
INDEX 01 00:00:00
TRACK 02 AUDIO
TITLE "Attack of the Mad Axeman"
PERFORMER "The Michael Schenker Group"
INDEX 01 03:27:67
TRACK 03 AUDIO
TITLE "On and On"
PERFORMER "The Michael Schenker Group"
INDEX 00 07:46:45
INDEX 01 07:48:22
TRACK 04 AUDIO
TITLE "Let Sleeping Dogs Lie"
PERFORMER "The Michael Schenker Group"
INDEX 01 12:31:70
TRACK 05 AUDIO
TITLE "But I Want More"
PERFORMER "The Michael Schenker Group"
INDEX 00 17:54:02
INDEX 01 17:56:20
TRACK 06 AUDIO
TITLE "Never Trust a Stranger"
PERFORMER "The Michael Schenker Group"
INDEX 00 24:56:30
INDEX 01 24:57:17
TRACK 07 AUDIO
TITLE "Looking for Love"
PERFORMER "The Michael Schenker Group"
INDEX 00 29:24:05
INDEX 01 29:26:12
TRACK 08 AUDIO
TITLE "Secondary Motion"
PERFORMER "The Michael Schenker Group"
INDEX 00 33:29:50
INDEX 01 33:31:65


"Лог"
Exact Audio Copy V0.99 prebeta 5 from 4. May 2009

Отчёт EAC об извлечении, выполненном 21. июля 2010, 9:51

The Michael Schenker Group / M S G [CP32-5091]

Дисковод: Optiarc DVD RW AD-7200A Adapter: 1 ID: 0

Режим чтения : Достоверность
Использование точного потока : Да
Отключение кэша аудио : Да
Использование указателей C2 : Нет

Коррекция смещения при чтении : 48
Способность читать области Lead-in и Lead-out : Нет
Заполнение пропущенных сэмплов тишиной : Да
Удаление блоков с тишиной в начале и конце : Нет
При вычислениях CRC использовались нулевые сэмплы : Да
Интерфейс : Встроенный Win32-интерфейс для Win NT/2000

Выходной формат : Пользовательский кодировщик
Выбранный битрейт : 128 kBit/s
Качество : Высокий
Добавление ID3-тэга : Нет
Утилита сжатия : C:\Program Files\Exact Audio Copy\Flac\flac.exe
Дополнительные параметры : -8 -V -T "artist=%a" -T "title=%t" -T "album=%g" -T "date=%y" -T "tracknumber=%n" -T "genre=%m" -T "comment=EAC


TOC извлечённого CD

Трек | Старт | Длительность | Начальный сектор | Конечный сектор
---------------------------------------------------------------------
1 | 0:00.00 | 3:27.67 | 0 | 15591
2 | 3:27.67 | 4:20.30 | 15592 | 35121
3 | 7:48.22 | 4:43.48 | 35122 | 56394
4 | 12:31.70 | 5:24.25 | 56395 | 80719
5 | 17:56.20 | 7:00.72 | 80720 | 112291
6 | 24:57.17 | 4:28.70 | 112292 | 132461
7 | 29:26.12 | 4:05.53 | 132462 | 150889
8 | 33:31.65 | 3:45.40 | 150890 | 167804


Характеристики диапазона извлечения и сообщения об ошибках

Выбранный диапазон

Имя файла Y:\Музыка\The Michael Schenker Group\1981 M S G\The Michael Schenker Group - M S G [CP32-5091].wav

Пиковый уровень 100.0 %
Качество диапазона 100.0 %
CRC копии 52850582
Копирование... OK

Ошибок не произошло


AccurateRip: сводка

Трек 1 точное извлечение (доверие 2) [969D0F15]
Трек 2 точное извлечение (доверие 2) [82BD0FD0]
Трек 3 точное извлечение (доверие 2) [D633DF93]
Трек 4 точное извлечение (доверие 2) [41C72194]
Трек 5 точное извлечение (доверие 2) [B6D0049C]
Трек 6 точное извлечение (доверие 2) [10D99D30]
Трек 7 точное извлечение (доверие 2) [2DCDA040]
Трек 8 точное извлечение (доверие 2) [A02E5392]

Все треки извлечены точно

Конец отчёта


Состав:
Michael Schenker: Lead guitar
Gary Barden: Vocals
Chris Glen:Bass
Paul Raymond: Keyboards, rhythm guitar
Cozy Powell: Drums
Stephen Stills: Backing vocals

CP32-5091

_________________
Витасу до Даймонда как Алсу до Руссоса | При переразмещении - спрашивать разрешение!!


Top
 Profile  
 
 
PostPosted: 22 Jul 2010 
Хиппей (support team)
User avatar
Joined: 30 Jul 2007
Posts: 113537
Lоcаtion: Киев (Kyiv, UA)
Age: 46
Name: Andrey
Хых, спасибо, Дима! :true:
Я уже знаю, кто следующим поблагодарит за лосика :crazy:

_________________


Top
 Profile E-mail  
 
 
PostPosted: 22 Jul 2010 
ыыыы
User avatar
Joined: 17 May 2009
Posts: 952
Lоcаtion: Пушкино, МО
Age: 40
Name: Дмитрий
кто?? :shok:

_________________
Витасу до Даймонда как Алсу до Руссоса | При переразмещении - спрашивать разрешение!!


Top
 Profile  
 
 
PostPosted: 22 Jul 2010 
Хиппей (support team)
User avatar
Joined: 30 Jul 2007
Posts: 113537
Lоcаtion: Киев (Kyiv, UA)
Age: 46
Name: Andrey
Не я точно :nea:

_________________


Top
 Profile E-mail  
 
 
PostPosted: 22 Jul 2010 
ыыыы
User avatar
Joined: 17 May 2009
Posts: 952
Lоcаtion: Пушкино, МО
Age: 40
Name: Дмитрий
я так и думал... :umnik:

_________________
Витасу до Даймонда как Алсу до Руссоса | При переразмещении - спрашивать разрешение!!


Top
 Profile  
 
 
PostPosted: 23 Jul 2010 
Пионэръ
Joined: 08 Mar 2010
Posts: 36
Lоcаtion: Россия
Age: 39
Name: Иван
Спасибо Димка :true:


Top
 Profile E-mail  
 
 
PostPosted: 23 Jul 2010 
Труъ
User avatar
Joined: 14 Jul 2010
Posts: 104
Lоcаtion: Украина, Донецк
Age: 34
Name: Санёк
Спасибо, хорошая пластинка. Кози Пауэлл тут как всегда на высоте.

_________________
Rock 'N' Roll is the only thing that keeps me from breaking apart (c)


Top
 Profile E-mail  
 
 
PostPosted: 23 Jul 2010 
ыыыы
User avatar
Joined: 17 May 2009
Posts: 952
Lоcаtion: Пушкино, МО
Age: 40
Name: Дмитрий
Коззи велик!!

_________________
Витасу до Даймонда как Алсу до Руссоса | При переразмещении - спрашивать разрешение!!


Top
 Profile  
 
 
PostPosted: 23 Jul 2010 
Пионэръ
User avatar
Joined: 02 Jul 2010
Posts: 45
Lоcаtion: Сочи
Age: 47
Name: Борис
Спасибо !!! :ula:
Звук классный :meloman: :meloman:


Top
 Profile E-mail  
 
 
PostPosted: 25 Jul 2010 
Персональный статус
Joined: 14 May 2010
Posts: 236
Age: 37
Name: Денис
Спасибо! Это мега-ВЕЩЬ. Треугольничег.


Top
 Profile  
 
 
PostPosted: 27 Jul 2010 
Почётный металлург
User avatar
Joined: 15 Sep 2007
Posts: 4358
Lоcаtion: Хабаровск
Age: 59
Name: чуть выше
4 первых альбома Шенкера это бомба!!!!!!!!!

_________________
Коль будешь людей ты ослами честить,
тебе человеком меж них не прослыть!
(Саади, персидский поэт, 13в.)


Top
 Profile  
 
Display posts from previous:  Sort by  
Post new topic Reply to topic  [ 11 posts ] 

All times are UTC + 3 hours


Who is online

Users browsing this forum: No registered users and 1 guest


You cannot post new topics in this forum
You cannot reply to topics in this forum
You cannot edit your posts in this forum
You cannot delete your posts in this forum
You cannot post attachments in this forum

Search for:
Яндекс.Метрика
Powered by phpBB © 2000, 2002, 2005, 2007 phpBB Group