\m/ 80's metal \m/

Информационно-аналитический форум "80 см пыли" (In Search We Trust) "У нас никто никуда не спешит"
Me For You - http://me-4u.com
It is currently 17 Jul 2019

All times are UTC + 3 hours

Spoiler
Chat - temporary registration for foreign users (please leave your application here)







Post new topic Reply to topic  [ 9 posts ] 
Author Message
 
PostPosted: 19 Jun 2010 
Генеральный thrasher
User avatar
Joined: 03 Oct 2008
Posts: 3713
Lоcаtion: Ханты-Мансийский АО
Age: 44
Name: Сергей
Image

Year:2001
Style:Heavy/Thrash Metal
Country:Poland
Audio:Flac+Cue+Log
Size:490Mb

Line-Up:
Grzegorz Kupczyk - vocals
Wojciech Hoffmann - guitars
Bogusz Rutkiewicz - bass
Mariusz Bobkowski - drums

Tracklist:
1. Army 04:27
2. Spectre in the Opera 05:46
3. Dream 04:32
4. The Limit 04:34
5. LSD 05:29
6. Catatonia 05:25
7. Awatar 05:14
8. Embryo 05:09
9. Deceit 04:56
10. Burn (extra track) 04:27
11. Fright (extra track) 04:44
12. When a Blind Man Cries (extra track) 03:40
13. Neon Knights (extra track) 03:46

Log
EAC extraction logfile from 14. June 2005, 17:21 for CD
Turbo / Awatar

Used drive : LITE-ON DVDRW SOHW-1673S Adapter: 1 ID: 1
Read mode : Secure with NO C2, accurate stream, disable cache
Read offset correction : 12
Overread into Lead-In and Lead-Out : No

Used output format : Internal WAV Routines
44.100 Hz; 16 Bit; Stereo

Other options :
Fill up missing offset samples with silence : Yes
Delete leading and trailing silent blocks : No
Native Win32 interface for Win NT & 2000


Range status and errors
Selected range
Filename E:\Turbo [2001] [CD] Awatar\CDImage.wav

Peak level 100.0 %
Range quality 100.0 %
CRC 0FD54481
Copy OK

No errors occured

End of status report


Cue
PERFORMER "Turbo"
TITLE "Awatar"
FILE "CDImage.flac" WAVE
TRACK 01 AUDIO
TITLE "Army"
PERFORMER "Turbo"
INDEX 01 00:00:00
TRACK 02 AUDIO
TITLE "Spectre in the Opera"
PERFORMER "Turbo"
INDEX 00 04:24:74
INDEX 01 04:26:24
TRACK 03 AUDIO
TITLE "Dream"
PERFORMER "Turbo"
INDEX 00 10:10:16
INDEX 01 10:11:41
TRACK 04 AUDIO
TITLE "The Limit"
PERFORMER "Turbo"
INDEX 00 14:41:70
INDEX 01 14:44:20
TRACK 05 AUDIO
TITLE "LSD"
PERFORMER "Turbo"
INDEX 00 19:14:70
INDEX 01 19:17:20
TRACK 06 AUDIO
TITLE "Catatonia"
PERFORMER "Turbo"
INDEX 00 24:37:01
INDEX 01 24:39:26
TRACK 07 AUDIO
TITLE "Awatar"
PERFORMER "Turbo"
INDEX 00 30:03:46
INDEX 01 30:05:71
TRACK 08 AUDIO
TITLE "Embryo"
PERFORMER "Turbo"
INDEX 00 35:23:12
INDEX 01 35:24:37
TRACK 09 AUDIO
TITLE "Deceit"
PERFORMER "Turbo"
INDEX 00 40:37:61
INDEX 01 40:39:11
TRACK 10 AUDIO
TITLE "Burn"
PERFORMER "Turbo"
INDEX 00 45:32:64
INDEX 01 45:36:14
TRACK 11 AUDIO
TITLE "Fright"
PERFORMER "Turbo"
INDEX 00 50:01:31
INDEX 01 50:03:56
TRACK 12 AUDIO
TITLE "When a Blind Man Cries"
PERFORMER "Turbo"
INDEX 00 54:44:41
INDEX 01 54:46:66
TRACK 13 AUDIO
TITLE "Neon Knights"
PERFORMER "Turbo"
INDEX 00 58:25:33
INDEX 01 58:27:58


Megaupload


Top
 Profile  
 
 
PostPosted: 28 Aug 2010 
Работнечег
User avatar
Joined: 28 Aug 2007
Posts: 5912
Lоcаtion: г. Москва
Age: 30
Name: Дима
Спасибо, Серёг! :thanx:


Top
 Profile E-mail  
 
 
PostPosted: 05 Aug 2011 
ТрэшЭрос
User avatar
Joined: 18 Jul 2011
Posts: 2303
Lоcаtion: Гулькевичи
Age: 44
Name: Александр
:thanx:

_________________
Thrash no trash!!!


Top
 Profile E-mail  
 
 
PostPosted: 06 Aug 2011 
Хиппей (support team)
User avatar
Joined: 30 Jul 2007
Posts: 113517
Lоcаtion: Киев (Kyiv, UA)
Age: 46
Name: Andrey
:thanx:

mirror: M-Cloud l Narod

scans
ImageImageImageImage
ImageImageImageImageImage

_________________


Top
 Profile E-mail  
 
 
PostPosted: 08 Dec 2013 
Хиппей (support team)
User avatar
Joined: 30 Jul 2007
Posts: 113517
Lоcаtion: Киев (Kyiv, UA)
Age: 46
Name: Andrey
Первый альбом группы после реуниона (спустя почти 10 лет) оказался хоть и хитовым сам по себе, но модняво-грувастным музоном в стиле грув-хэви с искаженным вокалом, индустриальными фишками и иногда с заползанием в павер-трэш модный, но народу понравился (сужу по рецензиям - явно очень уж ждали возвращения). Мне тоже парочка вещей тоже вкатила, но как и в случае с Metal Church и Artillery название основной группы нужно было оставлять в покое.
зы. На альбоме в качестве бонусов зачем-то записали и впихнули каверы на мега-известные группы и песни. Не знаю, когда они были записаны, но вот такой саунд мне больше понравился. Хотя каверы так себе.
Оценку альбому выставлять не рискну.

_________________


Top
 Profile E-mail  
 
 
PostPosted: 08 Dec 2013 
Генеральный thrasher
User avatar
Joined: 03 Oct 2008
Posts: 3713
Lоcаtion: Ханты-Мансийский АО
Age: 44
Name: Сергей
Андрюха,добрался до Turbo и решил всё переслушать?


Top
 Profile  
 
 
PostPosted: 08 Dec 2013 
Хиппей (support team)
User avatar
Joined: 30 Jul 2007
Posts: 113517
Lоcаtion: Киев (Kyiv, UA)
Age: 46
Name: Andrey
Ну да. Почти все альбомы слышал. Поздние не все, а сейчас вот напал на винте на букву Т с твоими и не твоим рипами и...
Ну и как обычно - переливаю и слушаю :meloman:

_________________


Top
 Profile E-mail  
 
 
PostPosted: 28 Mar 2014 
Доктор энтомологии
User avatar
Joined: 22 Jan 2009
Posts: 9804
Lоcаtion: Даугавпилс
Age: 44
Name: Алексей
В сети этого года свежий альбом болтается ужо :umnik:


Top
 Profile  
 
 
PostPosted: 08 Apr 2014 
Хиппей (support team)
User avatar
Joined: 30 Jul 2007
Posts: 113517
Lоcаtion: Киев (Kyiv, UA)
Age: 46
Name: Andrey
Мы ж его уже отпиратили :lloo:

_________________


Top
 Profile E-mail  
 
Display posts from previous:  Sort by  
Post new topic Reply to topic  [ 9 posts ] 

All times are UTC + 3 hours


Who is online

Users browsing this forum: No registered users and 1 guest


You cannot post new topics in this forum
You cannot reply to topics in this forum
You cannot edit your posts in this forum
You cannot delete your posts in this forum
You cannot post attachments in this forum

Search for:
Яндекс.Метрика
Powered by phpBB © 2000, 2002, 2005, 2007 phpBB Group