\m/ 80's metal \m/

Информационно-аналитический форум "80 см пыли" (In Search We Trust) "У нас никто никуда не спешит"
Me For You - http://me-4u.com
It is currently 20 Sep 2019

All times are UTC + 3 hours

Spoiler
Chat - temporary registration for foreign users (please leave your application here)







Post new topic Reply to topic  [ 4 posts ] 
Author Message
 
PostPosted: 30 May 2010 
Генеральный thrasher
User avatar
Joined: 03 Oct 2008
Posts: 3732
Lоcаtion: Ханты-Мансийский АО
Age: 44
Name: Сергей
Image

Year:1989 (Remastered 2009)
Style:Thrash Metal
Country:Poland
Audio:Ape+Cue+Log
Size:524Mb
Label:Metal Mind

Tracklist:
01. Salvator Mundi :03:46
02. Aids :04:45
03. Ocean Lez :04:36
04. Petla czasu :04:45
05. Szalony Swiat :05:00
06. Anty R.J.Ewa :04:36
07. Rozkosz i bol :04:14
08. Gniazdo smutku :05:13
09. 13.12.88 :00:48
10. Salvatar Mundi (bonus) :03:57
11. Aids (bonus) :04:44
12. Ocean Of Tears (bonus) :04:37
13. Loop Of Time (bonus) :04:42
14. Crazy World (bonus) :05:01
15. Anty R.J.Ewa (bonus) :04:36
16. Pleasure And Pain (bonus) :04:14
17. Den Of Sorrow (bonus) :05:13

Cue
REM GENRE Metal
REM DATE 1989
REM DISCID F4118F11
REM COMMENT "ExactAudioCopy v0.95b4"
PERFORMER "Turbo"
TITLE "Epidemie"
FILE "Turbo - Epidemie.wav" WAVE
TRACK 01 AUDIO
TITLE "Salvator Mundi"
PERFORMER "Turbo"
ISRC PLA640805560
FLAGS DCP
INDEX 01 00:00:00
TRACK 02 AUDIO
TITLE "Aids"
PERFORMER "Turbo"
ISRC PLA640805561
FLAGS DCP
INDEX 01 03:46:52
TRACK 03 AUDIO
TITLE "Ocean lez"
PERFORMER "Turbo"
ISRC PLA640805562
FLAGS DCP
INDEX 01 08:32:36
TRACK 04 AUDIO
TITLE "Petla czasu"
PERFORMER "Turbo"
ISRC PLA640805563
FLAGS DCP
INDEX 01 13:08:69
TRACK 05 AUDIO
TITLE "Szalony Swiat"
PERFORMER "Turbo"
ISRC PLA640805564
FLAGS DCP
INDEX 01 17:54:22
TRACK 06 AUDIO
TITLE "Anty R.J.Ewa"
PERFORMER "Turbo"
ISRC PLA640805565
FLAGS DCP
INDEX 01 22:54:54
TRACK 07 AUDIO
TITLE "Rozkosz i bol"
PERFORMER "Turbo"
ISRC PLA640805566
FLAGS DCP
INDEX 01 27:31:17
TRACK 08 AUDIO
TITLE "Gniazdo smutku"
PERFORMER "Turbo"
ISRC PLA640805567
FLAGS DCP
INDEX 01 31:45:31
TRACK 09 AUDIO
TITLE "13.12.88"
PERFORMER "Turbo"
ISRC PLA640805568
FLAGS DCP
INDEX 01 36:58:47
TRACK 10 AUDIO
TITLE "Salvator Mundi (bonus)"
PERFORMER "Turbo"
ISRC PLA640805569
FLAGS DCP
INDEX 01 37:47:05
TRACK 11 AUDIO
TITLE "Aids (bonus)"
PERFORMER "Turbo"
ISRC PLA640805570
FLAGS DCP
INDEX 01 41:45:04
TRACK 12 AUDIO
TITLE "Ocean Of Tears (bonus)"
PERFORMER "Turbo"
ISRC PLA640805571
FLAGS DCP
INDEX 01 46:29:43
TRACK 13 AUDIO
TITLE "Loop Of Time (bonus)"
PERFORMER "Turbo"
ISRC PLA640805572
FLAGS DCP
INDEX 01 51:06:44
TRACK 14 AUDIO
TITLE "Crazy World (bonus)"
PERFORMER "Turbo"
ISRC PLA640805573
FLAGS DCP
INDEX 01 55:49:42
TRACK 15 AUDIO
TITLE "Anty R.J.Eve (bonus)"
PERFORMER "Turbo"
ISRC PLA640805574
FLAGS DCP
INDEX 01 60:50:48
TRACK 16 AUDIO
TITLE "Pleasure And Pain (bonus)"
PERFORMER "Turbo"
ISRC PLA640805575
FLAGS DCP
INDEX 01 65:26:74
TRACK 17 AUDIO
TITLE "Den Of Sorrow (bonus)"
PERFORMER "Turbo"
ISRC PLA640805576
FLAGS DCP
INDEX 01 69:41:63


Log
Отчёт EAC об извлечении, выполненном 19. февраля 2010, 19:00 для диска:
Turbo / Epidemie

Дисковод: HL-DT-STDVDRAM GH20NS10 Adapter: 1 ID: 0
Режим чтения: Достоверный (C2: нет, Точный поток: да, Отключение кэша: да)
Комбинированное смещение чтения/записи: 667
Способность читать области Lead-in и Lead-out : Нет

Выходной формат: Внутренние WAV-операции
44.100 Гц; 16 бит; стерео

Другие параметры:
Заполнение пропущенных сэмплов тишиной : Да
Удаление блоков с тишиной в начале и конце : Нет
Встроенный Win32-интерфейс для Win NT/2000


Характеристики диапазона извлечения и сообщения об ошибках
Выбранный диапазон
Имя файла D:\Музыка\Готовое для заливки\Turbo - Epidemie (1989) Rem.2009 APE\Turbo - Epidemie.wav

Пиковый уровень 100.0 %
Качество диапазона 99.9 %
CRC 0E78DC88
Копирование... OK

Ошибок не произошло

Конец отчёта


Megaupload


Top
 Profile  
 
 
PostPosted: 30 May 2010 
Генеральный thrasher
User avatar
Joined: 03 Oct 2008
Posts: 3732
Lоcаtion: Ханты-Мансийский АО
Age: 44
Name: Сергей
Источник - east rock форум... :losik:


Top
 Profile  
 
 
PostPosted: 30 May 2010 
Хиппей (support team)
User avatar
Joined: 30 Jul 2007
Posts: 114391
Lоcаtion: Киев (Kyiv, UA)
Age: 46
Name: Andrey
thorbeorn wrote:
Источник - east rock форум...

Ага, спасибо. А теперь прямой ссылочкой лучше указать :dance:

_________________


Top
 Profile E-mail  
 
 
PostPosted: 31 May 2010 
Power Metal Maniac
User avatar
Joined: 09 Aug 2008
Posts: 6858
Lоcаtion: Москва
Age: 41
Name: Егор
:true: :thanx:

_________________
Long Live Metal!


Top
 Profile  
 
Display posts from previous:  Sort by  
Post new topic Reply to topic  [ 4 posts ] 

All times are UTC + 3 hours


Who is online

Users browsing this forum: No registered users and 1 guest


You cannot post new topics in this forum
You cannot reply to topics in this forum
You cannot edit your posts in this forum
You cannot delete your posts in this forum
You cannot post attachments in this forum

Search for:
Яндекс.Метрика
Powered by phpBB © 2000, 2002, 2005, 2007 phpBB Group