\m/ 80's metal \m/

Информационно-аналитический форум "80 см пыли" (In Search We Trust) "У нас никто никуда не спешит"
Me For You - http://me-4u.com
It is currently 17 Jul 2019

All times are UTC + 3 hours

Spoiler
Chat - temporary registration for foreign users (please leave your application here)







Post new topic Reply to topic  [ 5 posts ] 
Author Message
 
PostPosted: 30 May 2010 
Генеральный thrasher
User avatar
Joined: 03 Oct 2008
Posts: 3713
Lоcаtion: Ханты-Мансийский АО
Age: 44
Name: Сергей
Image

Year:1987 (Remastered 2008)
Style:Thrash Metal
Country:Poland
Audio:Ape+Cue+Log
Size:543Mb
Label:Metal Mind

Tracklist:
01. The Last Warrior 06:42
02. Berud`s Sword 07:10
03. Seance With Vampire 06:29
04. Tempest`s Son 04:30
05. Goddess Of Confusion 05:34
06. Angel From Hell 03:45
07. The Trojan Horse 06:55
08. Ostatni wojownik 06:41
09. Miecz Beruda 07:07
10. Aniol zla 03:49
11. Seans z wampirem 06:28
12. Bogini chaosu 05:30

Cue
REM DISCID B710960C
REM COMMENT "ExactAudioCopy v0.99pb5"
PERFORMER "Turbo"
TITLE "Anthology - CD2.Last Warrior ; Ostatni Wojownik"
FILE "Turbo - Anthology - CD2.Last Warrior ; Ostatni Wojownik.ape" WAVE
TRACK 01 AUDIO
TITLE "The Last Warrior"
PERFORMER "Turbo"
FLAGS DCP
INDEX 01 00:00:00
TRACK 02 AUDIO
TITLE "Berud's Sword"
PERFORMER "Turbo"
FLAGS DCP
INDEX 01 06:42:00
TRACK 03 AUDIO
TITLE "Seance With Vampire"
PERFORMER "Turbo"
FLAGS DCP
INDEX 01 13:52:09
TRACK 04 AUDIO
TITLE "Tempest's Son"
PERFORMER "Turbo"
FLAGS DCP
INDEX 01 20:22:06
TRACK 05 AUDIO
TITLE "Goddess of Confusion"
PERFORMER "Turbo"
FLAGS DCP
INDEX 01 24:52:07
TRACK 06 AUDIO
TITLE "Angel From Hell"
PERFORMER "Turbo"
FLAGS DCP
INDEX 01 30:26:08
TRACK 07 AUDIO
TITLE "Kon Trojanski"
PERFORMER "Turbo"
FLAGS DCP
INDEX 01 34:12:07
TRACK 08 AUDIO
TITLE "Ostatni wojownik"
PERFORMER "Turbo"
FLAGS DCP
INDEX 01 41:07:63
TRACK 09 AUDIO
TITLE "Miecz Beruda"
PERFORMER "Turbo"
FLAGS DCP
INDEX 01 47:49:59
TRACK 10 AUDIO
TITLE "Aniol zla"
PERFORMER "Turbo"
FLAGS DCP
INDEX 01 54:57:45
TRACK 11 AUDIO
TITLE "Seans z wampirem"
PERFORMER "Turbo"
FLAGS DCP
INDEX 01 58:47:30
TRACK 12 AUDIO
TITLE "Bogini chaosu"
PERFORMER "Turbo"
FLAGS DCP
INDEX 01 65:15:39


Log
Exact Audio Copy V0.99 prebeta 5 from 4. May 2009

Sprawozdanie ze zgrywania programem EAC z 26. Kwietnia 2010, 10:44

Turbo / Turbo - Anthology - CD2.Last Warrior ; Ostatni Wojownik

Uїyty napкd: TSSTcorpCDDVDW SH-S203P Adapter: 5 ID: 1

Tryb odczytu: : Bezpieczny
Dokіadny strumieс : Tak
Neutralizacja bufora napкdu : Tak
Zwracanie bікdуw C2 : Nie

Korekta poіoїenia dla odczytu : 6
Nadczytywanie w obszarach LeadIn i LeadOut : Nie
Dopeіnianie cisz№ brakuj№cych prуbek : Tak
Usuwanie pocz№tkowych i koсcowych blokуw ciszy : Nie
Do przeliczenia sumy kontrolnej CRC uїywane s№ prуbki zerowe : Nie
Interfejs : Wewnкtrzny interfejs Win32 dla Windows NT i 2000

Uїyty format wyjњciowy : Monkey's Audio Lossless Encoder v3.99 DLL
Format prуbki : Normal Lossless Compression


TOC zgranej pіyty

Utwуr | Pocz№tek | Dіugoњж | Sektor pocz№tkowy | Sektor koсcowy
------------------------------------------------------------------
1 | 0:00.00 | 6:42.00 | 0 | 30149
2 | 6:42.00 | 7:10.09 | 30150 | 62408
3 | 13:52.09 | 6:29.72 | 62409 | 91655
4 | 20:22.06 | 4:30.01 | 91656 | 111906
5 | 24:52.07 | 5:34.01 | 111907 | 136957
6 | 30:26.08 | 3:45.74 | 136958 | 153906
7 | 34:12.07 | 6:55.56 | 153907 | 185087
8 | 41:07.63 | 6:41.71 | 185088 | 215233
9 | 47:49.59 | 7:07.61 | 215234 | 247319
10 | 54:57.45 | 3:49.60 | 247320 | 264554
11 | 58:47.30 | 6:28.09 | 264555 | 293663
12 | 65:15.39 | 5:30.62 | 293664 | 318475


Stan i bікdy zakresu

Wybrany zakres

Њcieїka pliku F:\Turbo - Anthology\06.Last Warrior ; Ostatni Wojownik\Turbo - Turbo - Anthology - CD2.Last Warrior ; Ostatni Wojownik.ape

Poziom wysterowania 98.5 %
Jakoњж zakresu 100.0 %
CRC kopii 4B057B90
Kopia bezbікdna

Nie byіo bікdуw



Koniec raportu


Megaupload


Last edited by thorbeorn on 30 May 2010, edited 1 time in total.

Top
 Profile  
 
 
PostPosted: 30 May 2010 
Хиппей (support team)
User avatar
Joined: 30 Jul 2007
Posts: 113522
Lоcаtion: Киев (Kyiv, UA)
Age: 46
Name: Andrey
Серёж, спасибо :thanx:

Как обычно, претензии - куй, лог в развёрнутом виде и указать автора рипа или источник.

_________________


Top
 Profile E-mail  
 
 
PostPosted: 30 May 2010 
Генеральный thrasher
User avatar
Joined: 03 Oct 2008
Posts: 3713
Lоcаtion: Ханты-Мансийский АО
Age: 44
Name: Сергей
Андрей,куй и лог оформил.Источник - east rock форум.


Top
 Profile  
 
 
PostPosted: 30 May 2010 
Хиппей (support team)
User avatar
Joined: 30 Jul 2007
Posts: 113522
Lоcаtion: Киев (Kyiv, UA)
Age: 46
Name: Andrey
http://ostrock.forum-bb.net Он?

_________________


Top
 Profile E-mail  
 
 
PostPosted: 08 Dec 2013 
Хиппей (support team)
User avatar
Joined: 30 Jul 2007
Posts: 113522
Lоcаtion: Киев (Kyiv, UA)
Age: 46
Name: Andrey
ImageImageImageImage

И к этому альбому подобрался :dance: Красота :true:
Скоростной техничный хэви-трэш с "высокочастотным" вокалистом.
Первая же ассоциация - альбом... свежий альбом группы Artillery :crazy: :arrow: Artillery - 2013 - Legions

8/10



Turbo - 1987 - Ostatni Wojownik (reissue 2008) [apes]

mirror: Narod l M-Cloud

_________________


Top
 Profile E-mail  
 
Display posts from previous:  Sort by  
Post new topic Reply to topic  [ 5 posts ] 

All times are UTC + 3 hours


Who is online

Users browsing this forum: No registered users and 1 guest


You cannot post new topics in this forum
You cannot reply to topics in this forum
You cannot edit your posts in this forum
You cannot delete your posts in this forum
You cannot post attachments in this forum

Search for:
Яндекс.Метрика
Powered by phpBB © 2000, 2002, 2005, 2007 phpBB Group