\m/ 80's metal \m/

Информационно-аналитический форум "80 см пыли" (In Search We Trust) "У нас никто никуда не спешит"
Me For You - http://me-4u.com
It is currently 23 Jul 2019

All times are UTC + 3 hours

Spoiler
Chat - temporary registration for foreign users (please leave your application here)







Post new topic Reply to topic  [ 20 posts ] 
Author Message
 
PostPosted: 11 May 2010 
Прокъмитолист
User avatar
Joined: 12 Aug 2007
Posts: 6579
Lоcаtion: Санктъ-Петербуркъ
Age: 51
Name: Олекъ
Tyrant's Reign [1987] Year Of The Tyrants EP
Cynical Records

Image

Genre: speed metal
Country: USA
Contents: ape(tracks)/log/cover
Size: 139 MB

Tracklist:
01. Tyrant's Reign
02. Jack The Ripper
03. Untamed
04. Deadly Eyes
05. Reign Of Terror
06. Fadeaway

Playtime: 26:51

Lineup:
Randy Barron - vocals
Karl Miller - guitars
Chris Nelken - guitars
Phil Fouch - bass
Gabriel Anthony - drums

EAC log
Code:
EAC extraction logfile from 1. May 2005, 21:19 for CD
/

Used drive  : PIONEER DVD-RW  DVR-108   Adapter: 1  ID: 0
Read mode   : Secure with NO C2, accurate stream, disable cache
Read offset correction : 0
Overread into Lead-In and Lead-Out : No

Used output format : C:\Programmi\Exact Audio Copy\MAC.exe   (Monkey's Audio Lossless Encoder)
                     High Lossless Compression

Other options      :
    Fill up missing offset samples with silence : Yes
    Delete leading and trailing silent blocks : No
    Installed external ASPI interface


Track  1
   Filename G:\Metalmadness releases\TYRANT'S REIGN\ - 01 - Track , 01.wav

   Peak level 89.1 %
   Track quality 100.0 %
   Copy CRC E89FFA55
   Copy OK

Track  2
   Filename G:\Metalmadness releases\TYRANT'S REIGN\ - 02 - Track , 02.wav

   Peak level 89.1 %
   Track quality 100.0 %
   Copy CRC CF58D49C
   Copy OK

Track  3
   Filename G:\Metalmadness releases\TYRANT'S REIGN\ - 03 - Track , 03.wav

   Peak level 89.1 %
   Track quality 100.0 %
   Copy CRC D81F2FF9
   Copy OK

Track  4
   Filename G:\Metalmadness releases\TYRANT'S REIGN\ - 04 - Track , 04.wav

   Peak level 89.1 %
   Track quality 100.0 %
   Copy CRC 35EFE35B
   Copy OK

Track  5
   Filename G:\Metalmadness releases\TYRANT'S REIGN\ - 05 - Track , 05.wav

   Peak level 89.1 %
   Track quality 100.0 %
   Copy CRC 560711A2
   Copy OK

Track  6
   Filename G:\Metalmadness releases\TYRANT'S REIGN\ - 06 - Track , 06.wav

   Peak level 89.1 %
   Track quality 99.9 %
   Copy CRC 385FECFD
   Copy OK


No errors occured


End of status report

Релиз от gnoppi с ММТ (за что ему в очередной раз огромное спасибо). Рип с винила, потрэковый.

_________________
прокъметол - это музыко, от которово есть прок (ы)


Top
 Profile  
 
 
PostPosted: 11 May 2010 
Хиппей (support team)
User avatar
Joined: 30 Jul 2007
Posts: 113628
Lоcаtion: Киев (Kyiv, UA)
Age: 46
Name: Andrey
Спасибо всем! Вчера тож скачал осликом :dance:

Миник не понравился :(
Спид-мэтал обычный, без фишек. Единственный хит - 05. Reign Of Terror :true:
Рип с достаточно запиленного винила, звук глухой, почти отсуствуют мои любимые высокие частотки с песочком, хотя песка навалом.
Уровень записи очень низкий, так что Толик явно тож разочаруется :pardon:

_________________


Top
 Profile E-mail  
 
 
PostPosted: 11 May 2010 
Power Metal Maniac
User avatar
Joined: 09 Aug 2008
Posts: 6778
Lоcаtion: Москва
Age: 41
Name: Егор
Андрей, а по мне шедевр Спид-метала - исполнение в очень быстром темпе, но не тупой примитив.

_________________
Long Live Metal!


Top
 Profile  
 
 
PostPosted: 11 May 2010 
Прокъмитолист
User avatar
Joined: 12 Aug 2007
Posts: 6579
Lоcаtion: Санктъ-Петербуркъ
Age: 51
Name: Олекъ
ну дык другого варианта все равно нет... говорят, что существует еще пиратский сплит (вместе с Riot), но ни разу не встречал, да и что там за качество... :vic:

_________________
прокъметол - это музыко, от которово есть прок (ы)


Top
 Profile  
 
 
PostPosted: 11 May 2010 
Труъ
User avatar
Joined: 15 Dec 2008
Posts: 131
Lоcаtion: Донбасс
Age: 46
Name: Евгений
:thanx:


Top
 Profile  
 
 
PostPosted: 11 May 2010 
Хиппей (support team)
User avatar
Joined: 30 Jul 2007
Posts: 113628
Lоcаtion: Киев (Kyiv, UA)
Age: 46
Name: Andrey
EG Power wrote:
а по мне шедевр Спид-метала - исполнение в очень быстром темпе, но не тупой примитив.

О тупом ничего не говорил, обычным американский спидняк с... германским уклоном, но и оригинальности не слышу пока :vic:

_________________


Top
 Profile E-mail  
 
 
PostPosted: 11 May 2010 
Power Metal Maniac
User avatar
Joined: 09 Aug 2008
Posts: 6778
Lоcаtion: Москва
Age: 41
Name: Егор
оригинальности почти нет, но качество музыки на самом высочайшем уровне - именно так и надо играть Speed ИМХО

_________________
Long Live Metal!


Top
 Profile  
 
 
PostPosted: 11 May 2010 
Хиппей (support team)
User avatar
Joined: 30 Jul 2007
Posts: 113628
Lоcаtion: Киев (Kyiv, UA)
Age: 46
Name: Andrey
Соглашусь. Но таких вот групп в то время уже было валом. И они как-то отличались друг от друга, хоть чем-то - вокалом, гитаристами, интро-вставками или еще чем-то, а этот миник (пока не говорю о полных альбомах) очень сырой и прямолинейный.
Хотя есть две темы в виде баллад, но.. недоработаны. Или вокалист им был нужен с более широким диапазоном голоса. В общем, альбом на крепкую троечку.

_________________


Top
 Profile E-mail  
 
 
PostPosted: 11 May 2010 
Анатолий
User avatar
Joined: 18 Oct 2008
Posts: 3506
Lоcаtion: Армавир
Age: 42
Name: Анатолий
spiralarch

Спасибо большое, Олег! :thanx:

EG Power

Егор, ты уже успел сравнить со своим образцом?


Top
 Profile E-mail  
 
 
PostPosted: 11 May 2010 
Power Metal Maniac
User avatar
Joined: 09 Aug 2008
Posts: 6778
Lоcаtion: Москва
Age: 41
Name: Егор
Privateer
я только докачал

_________________
Long Live Metal!


Top
 Profile  
 
 
PostPosted: 11 May 2010 
Анатолий
User avatar
Joined: 18 Oct 2008
Posts: 3506
Lоcаtion: Армавир
Age: 42
Name: Анатолий
EG Power

Жду отзыва. :umnik:


Top
 Profile E-mail  
 
 
PostPosted: 05 Aug 2011 
ТрэшЭрос
User avatar
Joined: 18 Jul 2011
Posts: 2303
Lоcаtion: Гулькевичи
Age: 44
Name: Александр
:thanx:

_________________
Thrash no trash!!!


Top
 Profile E-mail  
 
 
PostPosted: 31 Jan 2014 
Хиппей (support team)
User avatar
Joined: 30 Jul 2007
Posts: 113628
Lоcаtion: Киев (Kyiv, UA)
Age: 46
Name: Andrey
mirror: Narod l M-Cloud

_________________


Top
 Profile E-mail  
 
 
PostPosted: 15 Dec 2018 
Я набрал 1000 сообщений!
Joined: 12 Dec 2008
Posts: 1066
Lоcаtion: BULGARIA
Age: 40
Name: DIMITЪR
Странно что в этой компилаций не включили все песни от EP - епишку, а звучек действительно хорош :vic: :vic: :vic: :vic:

https://rutracker.org/forum/viewtopic.php?t=5534059


Top
 Profile  
 
 
PostPosted: 31 Dec 2018 
Хиппей (support team)
User avatar
Joined: 30 Jul 2007
Posts: 113628
Lоcаtion: Киев (Kyiv, UA)
Age: 46
Name: Andrey
Tyrant's Reign - 2017 - Fragments of Time (comp.) [flac]

Image

mirror: Uloz l Narod l M-Cloud

Чёт творчество группы ну очень сильно напоминает Metallica образца 86-88 годов.
Впрочем, мне понравилось :lob: :lob:

Ещё несколько раз внимательно послушаю сборник.

log
Exact Audio Copy V1.0 beta 6 from 9. April 2015

EAC extraction logfile from 13. March 2018, 22:50

Tyrant's Reign / Fragments of Time

Used drive : Optiarc DVD RW AD-7700S Adapter: 1 ID: 1

Read mode : Secure
Utilize accurate stream : Yes
Defeat audio cache : Yes
Make use of C2 pointers : No

Read offset correction : 48
Overread into Lead-In and Lead-Out : No
Fill up missing offset samples with silence : Yes
Delete leading and trailing silent blocks : No
Null samples used in CRC calculations : Yes
Used interface : Native Win32 interface for Win NT & 2000

Used output format : User Defined Encoder
Selected bitrate : 1024 kBit/s
Quality : High
Add ID3 tag : No
Command line compressor : C:\Program Files (x86)\Exact Audio Copy\FLAC\FLAC.EXE
Additional command line options : -V -8 -T "Date=%year%" -T "Genre=%genre%" %source%


TOC of the extracted CD

Track | Start | Length | Start sector | End sector
---------------------------------------------------------
1 | 0:00.00 | 5:22.07 | 0 | 24156
2 | 5:22.07 | 2:25.22 | 24157 | 35053
3 | 7:47.29 | 4:45.70 | 35054 | 56498
4 | 12:33.24 | 3:52.25 | 56499 | 73923
5 | 16:25.49 | 7:11.38 | 73924 | 106286
6 | 23:37.12 | 4:29.44 | 106287 | 126505
7 | 28:06.56 | 7:16.37 | 126506 | 159242
8 | 35:23.18 | 4:15.19 | 159243 | 178386
9 | 39:38.37 | 4:41.32 | 178387 | 199493
10 | 44:19.69 | 5:55.57 | 199494 | 226175
11 | 50:15.51 | 7:22.04 | 226176 | 259329


Range status and errors

Selected range

Filename C:\Users\Олег\Desktop\Tyrant s Reigh 2017\Tyrant's Reign - Fragments of Time.wav

Peak level 100.0 %
Extraction speed 4.6 X
Range quality 100.0 %
Test CRC 1BCE04F9
Copy CRC 1BCE04F9
Copy OK

No errors occurred


AccurateRip summary

Track 1 not present in database
Track 2 not present in database
Track 3 not present in database
Track 4 not present in database
Track 5 not present in database
Track 6 not present in database
Track 7 not present in database
Track 8 not present in database
Track 9 not present in database
Track 10 not present in database
Track 11 not present in database

None of the tracks are present in the AccurateRip database

End of status report

---- CUETools DB Plugin V2.1.6

[CTDB TOCID: 8Ce5IjdhZss2nRvSB3L5VRjZh0o-] found
Submit result: 8Ce5IjdhZss2nRvSB3L5VRjZh0o- has been confirmed
Track | CTDB Status
1 | (1/8) Accurately ripped
2 | (1/8) Accurately ripped
3 | (1/8) Accurately ripped
4 | (1/8) Accurately ripped
5 | (1/8) Accurately ripped
6 | (1/8) Accurately ripped
7 | (1/8) Accurately ripped
8 | (1/8) Accurately ripped
9 | (1/8) Accurately ripped
10 | (1/8) Accurately ripped
11 | (1/8) Accurately ripped


==== Log checksum 3A1F4A7739286A94DC2F50F6993DD8455A356C787A96893C56A5883667415737 ====

cue
REM GENRE "Thrash Metal"
REM DATE 2017
REM DISCID 9E0D810B
REM COMMENT "ExactAudioCopy v1.0b6"
CATALOG 0803343156553
PERFORMER "Tyrant's Reign"
TITLE "Fragments of Time"
FILE "Tyrant's Reign - Fragments of Time.flac" WAVE
TRACK 01 AUDIO
TITLE " Thrashing Metal Maniacs"
PERFORMER "Tyrant's Reign"
ISRC UKJXT1700501
INDEX 01 00:00:00
TRACK 02 AUDIO
TITLE "Star Chamber"
PERFORMER "Tyrant's Reign"
ISRC UKJXT1700502
INDEX 01 05:22:07
TRACK 03 AUDIO
TITLE "S.O.S."
PERFORMER "Tyrant's Reign"
ISRC UKJXT1700503
INDEX 01 07:47:29
TRACK 04 AUDIO
TITLE "Kill or Be Killed"
PERFORMER "Tyrant's Reign"
ISRC UKJXT1700504
INDEX 01 12:33:24
TRACK 05 AUDIO
TITLE "The Amulet"
PERFORMER "Tyrant's Reign"
ISRC UKJXT1700505
INDEX 01 16:25:49
TRACK 06 AUDIO
TITLE "Passage to Eternity"
PERFORMER "Tyrant's Reign"
ISRC UKJXT1700506
INDEX 01 23:37:12
TRACK 07 AUDIO
TITLE "Forever and a Day"
PERFORMER "Tyrant's Reign"
ISRC UKJXT1700507
INDEX 01 28:06:56
TRACK 08 AUDIO
TITLE "Tyrant's Reign"
PERFORMER "Tyrant's Reign"
ISRC UKJXT1700508
INDEX 01 35:23:18
TRACK 09 AUDIO
TITLE "Jack the Ripper"
PERFORMER "Tyrant's Reign"
ISRC UKJXT1700509
INDEX 01 39:38:37
TRACK 10 AUDIO
TITLE "Unconditional Surrender"
PERFORMER "Tyrant's Reign"
ISRC UKJXT1700510
INDEX 01 44:19:69
TRACK 11 AUDIO
TITLE "Insanity"
PERFORMER "Tyrant's Reign"
ISRC UKJXT1700511
INDEX 01 50:15:51

_________________


Top
 Profile E-mail  
 
 
PostPosted: 31 Dec 2018 
Хиппей (support team)
User avatar
Joined: 30 Jul 2007
Posts: 113628
Lоcаtion: Киев (Kyiv, UA)
Age: 46
Name: Andrey
Хорошая сборка, в общем :dance:

7/10

Но всего 3-4 песни в топы забрал бы.

Жаль, группа хоть и до сих пор активна, но пока так и не смогла записать ни единого полноформатного альбома :cry:

_________________


Top
 Profile E-mail  
 
 
PostPosted: 07 Jan 2019 
Работнечег
User avatar
Joined: 28 Aug 2007
Posts: 5919
Lоcаtion: г. Москва
Age: 30
Name: Дима
:thanx:


Top
 Profile E-mail  
 
 
PostPosted: 27 Feb 2019 
Работнечег
User avatar
Joined: 28 Aug 2007
Posts: 5919
Lоcаtion: г. Москва
Age: 30
Name: Дима
Отличная компиляшка и звук хороший сделали! :true: Спросил группу про новый альбом и первые демки


Top
 Profile E-mail  
 
 
PostPosted: 27 Feb 2019 
Анатолий
User avatar
Joined: 18 Oct 2008
Posts: 3506
Lоcаtion: Армавир
Age: 42
Name: Анатолий
А разницы же нет в сравнении с 2004 годом, ведь так, да? :umnik: :oops:


Top
 Profile E-mail  
 
 
PostPosted: 28 Feb 2019 
Работнечег
User avatar
Joined: 28 Aug 2007
Posts: 5919
Lоcаtion: г. Москва
Age: 30
Name: Дима
Вроде одно и то же, Толь! Может разница по звуку есть, но 2004 я не слушал.


Top
 Profile E-mail  
 
Display posts from previous:  Sort by  
Post new topic Reply to topic  [ 20 posts ] 

All times are UTC + 3 hours


Who is online

Users browsing this forum: No registered users and 3 guests


You cannot post new topics in this forum
You cannot reply to topics in this forum
You cannot edit your posts in this forum
You cannot delete your posts in this forum
You cannot post attachments in this forum

Search for:
Яндекс.Метрика
Powered by phpBB © 2000, 2002, 2005, 2007 phpBB Group