\m/ 80's metal \m/

Информационно-аналитический форум "80 см пыли" (In Search We Trust) "У нас никто никуда не спешит"
Me For You - http://me-4u.com
It is currently 21 Sep 2019

All times are UTC + 3 hours

Spoiler
Chat - temporary registration for foreign users (please leave your application here)







Post new topic Reply to topic  [ 12 posts ] 
Author Message
 
PostPosted: 11 May 2010 
Генеральный thrasher
User avatar
Joined: 03 Oct 2008
Posts: 3733
Lоcаtion: Ханты-Мансийский АО
Age: 44
Name: Сергей
Image

Year: 2009
Style: Heavy Metal
Country: Poland
Format: Wv+Cue+Log
Size: 436Mb

Tracklist:
1.Prolog
2.Na Progu Zykla
3.Szept Sumienia
4.Straznik Swiatla
5.Na Skrzydlach Nut
6.Niebezpieczny Taniec
7.Obietnica Lepszego Dnia
8.Tunel
9.Na Przekyr Noci
10.Noc Juz Wola
11.Epilog

Cue
REM GENRE "heavy metal"
REM DATE 2009
REM DISCID 8C0EED0B
REM COMMENT "ExactAudioCopy v0.99pb5"
PERFORMER "Turbo"
TITLE "Straznik Swiatla"
FILE "Turbo - Straznik Swiatla.wv" WAVE
TRACK 01 AUDIO
TITLE "Prolog"
PERFORMER "Turbo"
INDEX 01 00:00:00
TRACK 02 AUDIO
TITLE "Na progu їycia"
PERFORMER "Turbo"
INDEX 00 01:53:65
INDEX 01 01:54:60
TRACK 03 AUDIO
TITLE "Szept sumienia"
PERFORMER "Turbo"
INDEX 00 07:19:35
INDEX 01 07:20:35
TRACK 04 AUDIO
TITLE "Straїnik Њwiatіa"
PERFORMER "Turbo"
INDEX 00 14:31:57
INDEX 01 14:32:54
TRACK 05 AUDIO
TITLE "Na skrzydіach nut"
PERFORMER "Turbo"
INDEX 00 22:53:17
INDEX 01 22:54:12
TRACK 06 AUDIO
TITLE "Niebezpieczny taniec"
PERFORMER "Turbo"
INDEX 00 29:27:36
INDEX 01 29:28:17
TRACK 07 AUDIO
TITLE "Obietnica lepszego jutra"
PERFORMER "Turbo"
INDEX 00 34:55:03
INDEX 01 34:55:67
TRACK 08 AUDIO
TITLE "Tunel"
PERFORMER "Turbo"
INDEX 00 38:37:45
INDEX 01 38:38:40
TRACK 09 AUDIO
TITLE "Na przekуr nocy"
PERFORMER "Turbo"
INDEX 00 45:39:20
INDEX 01 45:40:01
TRACK 10 AUDIO
TITLE "Noc juї woіa"
PERFORMER "Turbo"
INDEX 00 52:11:13
INDEX 01 52:11:72
TRACK 11 AUDIO
TITLE "Epilog"
PERFORMER "Turbo"
INDEX 00 60:17:08
INDEX 01 60:17:67


Log
Exact Audio Copy V0.99 prebeta 5 from 4. May 2009

EAC extraction logfile from 10. February 2010, 1:06

Turbo / Straїnik Њwiatіa

Used drive : PIONEER DVD-RW DVRTD08RS Adapter: 1 ID: 0

Read mode : Secure
Utilize accurate stream : Yes
Defeat audio cache : Yes
Make use of C2 pointers : No

Read offset correction : 48
Overread into Lead-In and Lead-Out : No
Fill up missing offset samples with silence : Yes
Delete leading and trailing silent blocks : No
Null samples used in CRC calculations : Yes
Used interface : Installed external ASPI interface

Used output format : User Defined Encoder
Selected bitrate : 32 kBit/s
Quality : High
Add ID3 tag : No
Command line compressor : C:\Program Files\Exact Audio Copy\WAVPACK.EXE
Additional command line options : -h -m %s %d


TOC of the extracted CD

Track | Start | Length | Start sector | End sector
---------------------------------------------------------
1 | 0:00.00 | 1:54.60 | 0 | 8609
2 | 1:54.60 | 5:25.50 | 8610 | 33034
3 | 7:20.35 | 7:12.19 | 33035 | 65453
4 | 14:32.54 | 8:21.33 | 65454 | 103061
5 | 22:54.12 | 6:34.05 | 103062 | 132616
6 | 29:28.17 | 5:27.50 | 132617 | 157191
7 | 34:55.67 | 3:42.48 | 157192 | 173889
8 | 38:38.40 | 7:01.36 | 173890 | 205500
9 | 45:40.01 | 6:31.71 | 205501 | 234896
10 | 52:11.72 | 8:05.70 | 234897 | 271341
11 | 60:17.67 | 3:23.33 | 271342 | 286599


Range status and errors

Selected range

Filename D:\oryginaіy\Turbo - Straїnik Њwiatіa.wav

Peak level 96.6 %
Range quality 100.0 %
Copy CRC C83393E3
Copy OK

No errors occurred


AccurateRip summary

Track 1 accurately ripped (confidence 1) [781C4B58]
Track 2 accurately ripped (confidence 1) [9FCFDE8C]
Track 3 accurately ripped (confidence 1) [23273B9A]
Track 4 accurately ripped (confidence 1) [7E7A938E]
Track 5 accurately ripped (confidence 1) [AA56D1C9]
Track 6 accurately ripped (confidence 1) [E892560E]
Track 7 accurately ripped (confidence 1) [476B71B4]
Track 8 accurately ripped (confidence 1) [38995D82]
Track 9 accurately ripped (confidence 1) [A236FC35]
Track 10 accurately ripped (confidence 1) [72586815]
Track 11 accurately ripped (confidence 1) [E20EDA01]

All tracks accurately ripped

End of status report



Mega

Rapid 1
Rapid 2
Rapid 3
Rapid 4
Rapid 5


Last edited by thorbeorn on 11 May 2010, edited 1 time in total.

Top
 Profile  
 
 
PostPosted: 11 May 2010 
Генеральный thrasher
User avatar
Joined: 03 Oct 2008
Posts: 3733
Lоcаtion: Ханты-Мансийский АО
Age: 44
Name: Сергей
На этом альбоме доблестные поляки отошли от thrash metal и вернулись к heavy.На мой субьективный взгляд альбом очень хорош.


Top
 Profile  
 
 
PostPosted: 11 May 2010 
Позитивный Южанин
User avatar
Joined: 07 May 2010
Posts: 1620
Lоcаtion: КРЫМ
Age: 44
Name: Алексей
Это наблюдалось и на виниле Металмания,характерные настрои к предпосылкам :umnik:

_________________
WATER'EM ALL!


Top
 Profile E-mail  
 
 
PostPosted: 11 May 2010 
Генеральный thrasher
User avatar
Joined: 03 Oct 2008
Posts: 3733
Lоcаtion: Ханты-Мансийский АО
Age: 44
Name: Сергей
Добавил ссылки на рапиду.Может кому-то удобней с неё качать...


Top
 Profile  
 
 
PostPosted: 11 May 2010 
А может смените мне статус?..
Joined: 03 Jul 2009
Posts: 883
Lоcаtion: Serbia
Name: Laki
Thank you!!


Top
 Profile E-mail  
 
 
PostPosted: 11 May 2010 
Прокъмитолист
User avatar
Joined: 12 Aug 2007
Posts: 6604
Lоcаtion: Санктъ-Петербуркъ
Age: 51
Name: Олекъ
спасибо, Сергей! :true:

_________________
прокъметол - это музыко, от которово есть прок (ы)


Top
 Profile  
 
 
PostPosted: 11 May 2010 
Генеральный thrasher
User avatar
Joined: 03 Oct 2008
Posts: 3733
Lоcаtion: Ханты-Мансийский АО
Age: 44
Name: Сергей
Слушайте на здоровье! :true:


Top
 Profile  
 
 
PostPosted: 12 May 2010 
дядя Миша
User avatar
Joined: 17 Oct 2008
Posts: 3184
Lоcаtion: USSR
Age: 57
Name: Khy
как то мне этот альбом не очень...


Top
 Profile  
 
 
PostPosted: 23 Jul 2010 
Работнечег
User avatar
Joined: 28 Aug 2007
Posts: 5995
Lоcаtion: г. Москва
Age: 30
Name: Дима
Спасибо, я как-то пропустил этот альбом! :thanx:


Top
 Profile E-mail  
 
 
PostPosted: 05 Aug 2011 
ТрэшЭрос
User avatar
Joined: 18 Jul 2011
Posts: 2304
Lоcаtion: Гулькевичи
Age: 44
Name: Александр
:thanx:

_________________
Thrash no trash!!!


Top
 Profile E-mail  
 
 
PostPosted: 06 Aug 2011 
Хиппей (support team)
User avatar
Joined: 30 Jul 2007
Posts: 114411
Lоcаtion: Киев (Kyiv, UA)
Age: 46
Name: Andrey
:thanx:
mirror: MultiUp l Narod

_________________


Top
 Profile E-mail  
 
 
PostPosted: 23 Jul 2012 
Труъ
User avatar
Joined: 05 Oct 2008
Posts: 194
Lоcаtion: Saint Petersburg
Age: 46
Name: Jesse
Большое спасибо за альбом! Оказалось,что нет его у меня. И отдельная благодарность АНдрею за все заркала на народе! Просто сказочно удобно!!! :thanx:


Top
 Profile  
 
Display posts from previous:  Sort by  
Post new topic Reply to topic  [ 12 posts ] 

All times are UTC + 3 hours


Who is online

Users browsing this forum: No registered users and 2 guests


You cannot post new topics in this forum
You cannot reply to topics in this forum
You cannot edit your posts in this forum
You cannot delete your posts in this forum
You cannot post attachments in this forum

Search for:
Яндекс.Метрика
cron
Powered by phpBB © 2000, 2002, 2005, 2007 phpBB Group