\m/ 80's metal \m/

Информационно-аналитический форум "80 см пыли" (In Search We Trust) "У нас никто никуда не спешит"
Me For You - http://me-4u.com
It is currently 16 Sep 2019

All times are UTC + 3 hours

Spoiler
Chat - temporary registration for foreign users (please leave your application here)







Post new topic Reply to topic  [ 5 posts ] 
Author Message
 
PostPosted: 03 May 2010 
Генеральный thrasher
User avatar
Joined: 03 Oct 2008
Posts: 3730
Lоcаtion: Ханты-Мансийский АО
Age: 44
Name: Сергей
Image

Year:1984
Style:Hard'n'Heavy
Country:Poland
Format:Ape+Cue+Log
Size:227Mb

Tracklist:
1.Don`t Worry Friend 04:19
2.Upper Classes 05:17
3.Stop 04:23
4.Nothing Left To Say 05:15
5.Your Conscience 03:39
6.People Like Zombies 03:49
7.Black Sabbath 03:03
8.No Hints 07:31

Cue
REM GENRE "Rock & Roll"
REM DATE 1983
REM DISCID 7B0A5309
REM COMMENT "ExactAudioCopy v0.95b3"
PERFORMER "T S A"
TITLE "Spunk!"
FILE "T S A - Spunk!.ape" WAVE
TRACK 01 AUDIO
TITLE "Don't Worry Friend"
PERFORMER "T S A"
INDEX 01 00:00:00
TRACK 02 AUDIO
TITLE "Upper Classes"
PERFORMER "T S A"
INDEX 00 04:18:22
INDEX 01 04:19:27
TRACK 03 AUDIO
TITLE "Stop"
PERFORMER "T S A"
INDEX 00 09:34:74
INDEX 01 09:36:00
TRACK 04 AUDIO
TITLE "Nothing Left to Say"
PERFORMER "T S A"
INDEX 00 13:58:31
INDEX 01 13:59:37
TRACK 05 AUDIO
TITLE "Your Conscience"
PERFORMER "T S A"
INDEX 00 19:13:63
INDEX 01 19:14:68
TRACK 06 AUDIO
TITLE "People Like Zombies"
PERFORMER "T S A"
INDEX 00 22:52:27
INDEX 01 22:53:39
TRACK 07 AUDIO
TITLE "Black Sabbath"
PERFORMER "T S A"
INDEX 00 26:41:26
INDEX 01 26:42:31
TRACK 08 AUDIO
TITLE "No Hints"
PERFORMER "T S A"
INDEX 00 29:44:56
INDEX 01 29:45:61


Log
Plik sprawozdania ze zgrywania programem EAC z 15. Lipca 2009, 15:01 dla pіyty
T S A / Spunk!

Uїyty napкd: LITE-ON DVDRW SOHW-1693S Adapter: 1 ID: 0
Tryb odczytu: Pewny BEZ C2, z dokіadnym strumieniem, wyі№czone buforowanie
Korekta poіoїenia dla odczytu: 12
Nadczytywanie w obszarach LeadIn i LeadOut : Nie

Uїyty format wyjњciowy: Monkey's Audio Lossless Encoder v3.99 DLL
Normal Lossless Compression

Inne opcje:
Dopeіnienie cisz№ brakuj№cych przesuniкtych prуbek : Tak
Usuwanie pocz№tkowych i koсcowych blokуw ciszy : Nie
Wewnкtrzny interfejs Win32 dla Windows NT i 2000


Stan i bікdy zakresu
Wybrany zakres
Њcieїka pliku D:\_z _Ripy\T S A - Spunk!.ape

Poziom wysterowania 100.0 %
Jakoњж zakresu 100.0 %
Suma kontrolna 5BB44FCD
Kopia bezbікdna

Nie byіo bікdуw

Koniec raportu


Megaupload


Top
 Profile  
 
 
PostPosted: 03 May 2010 
Работнечег
User avatar
Joined: 28 Aug 2007
Posts: 5984
Lоcаtion: г. Москва
Age: 30
Name: Дима
:thanx:


Top
 Profile E-mail  
 
 
PostPosted: 03 May 2010 
труъ антисионист
User avatar
Joined: 01 Aug 2007
Posts: 4544
Lоcаtion: Откуда и большинство из нас
Age: 38
Name: Дядя Вова
Ой, мля, радость то какая! Сергей, спасибо тебе большое! :true:

_________________
Image
Image


Top
 Profile  
 
 
PostPosted: 03 May 2010 
Хиппей (support team)
User avatar
Joined: 30 Jul 2007
Posts: 114351
Lоcаtion: Киев (Kyiv, UA)
Age: 46
Name: Andrey
:thanx:

_________________


Top
 Profile E-mail  
 
 
PostPosted: 04 May 2010 
Почётный металлург
User avatar
Joined: 15 Sep 2007
Posts: 4358
Lоcаtion: Хабаровск
Age: 59
Name: чуть выше
:thanx:

_________________
Коль будешь людей ты ослами честить,
тебе человеком меж них не прослыть!
(Саади, персидский поэт, 13в.)


Top
 Profile  
 
Display posts from previous:  Sort by  
Post new topic Reply to topic  [ 5 posts ] 

All times are UTC + 3 hours


Who is online

Users browsing this forum: No registered users and 1 guest


You cannot post new topics in this forum
You cannot reply to topics in this forum
You cannot edit your posts in this forum
You cannot delete your posts in this forum
You cannot post attachments in this forum

Search for:
Яндекс.Метрика
Powered by phpBB © 2000, 2002, 2005, 2007 phpBB Group