\m/ 80's metal \m/

Информационно-аналитический форум "80 см пыли" (In Search We Trust) "У нас никто никуда не спешит"
Me For You - http://me-4u.com
It is currently 18 Jul 2019

All times are UTC + 3 hours

Spoiler
Chat - temporary registration for foreign users (please leave your application here)







Post new topic Reply to topic  [ 6 posts ] 
Author Message
 
PostPosted: 03 May 2010 
Генеральный thrasher
User avatar
Joined: 03 Oct 2008
Posts: 3714
Lоcаtion: Ханты-Мансийский АО
Age: 44
Name: Сергей
Image

Year: 1985
Style: Hard'n'Heavy
Country: Poland
Format: Ape+Cue+Log
Size: 268Mb

Tracklist:
01. Lunatic Dancing [2:55]
02. Marathon Runner [4:12]
03. Heavy Metal World [5:01]
04. White Death [3:47]
05. For Sale [3:11]
06. Plan For Life [2:30]
07. She Cat [4:38]
08. Race Machine Hero [2:09]
09. The Great Parade [3:47]
10. Rock'n'Roll [4:09]

Cue
REM GENRE "Rock & Roll"
REM DATE 1985
REM DISCID 940B790B
REM COMMENT "ExactAudioCopy v0.95b3"
PERFORMER "T S A"
TITLE "Heavy Metal World"
FILE "T S A - Heavy Metal World.ape" WAVE
TRACK 01 AUDIO
TITLE "Lunatic Dancing"
PERFORMER "T S A"
INDEX 01 00:00:00
TRACK 02 AUDIO
TITLE "Marathon Runner"
PERFORMER "T S A"
INDEX 00 02:54:35
INDEX 01 02:55:38
TRACK 03 AUDIO
TITLE "Heavy Metal World"
PERFORMER "T S A"
INDEX 00 07:06:38
INDEX 01 07:07:41
TRACK 04 AUDIO
TITLE "White Death"
PERFORMER "T S A"
INDEX 00 12:08:24
INDEX 01 12:09:27
TRACK 05 AUDIO
TITLE "For Sale"
PERFORMER "T S A"
INDEX 00 15:55:42
INDEX 01 15:56:46
TRACK 06 AUDIO
TITLE "Plan For Life"
PERFORMER "T S A"
INDEX 00 19:07:04
INDEX 01 19:08:08
TRACK 07 AUDIO
TITLE "She Cat"
PERFORMER "T S A"
INDEX 00 21:38:04
INDEX 01 21:39:06
TRACK 08 AUDIO
TITLE "Race Machine Hero"
PERFORMER "T S A"
INDEX 00 26:16:24
INDEX 01 26:17:27
TRACK 09 AUDIO
TITLE "The Great Parade"
PERFORMER "T S A"
INDEX 00 28:25:62
INDEX 01 28:26:66
TRACK 10 AUDIO
TITLE "Rock'n'Roll"
PERFORMER "T S A"
INDEX 00 32:12:69
INDEX 01 32:13:73


Log
Plik sprawozdania ze zgrywania programem EAC z 19. Lipca 2009, 14:44 dla pіyty
T S A / Heavy Metal World

Uїyty napкd: LITE-ON DVDRW SOHW-1693S Adapter: 1 ID: 0
Tryb odczytu: Pewny BEZ C2, z dokіadnym strumieniem, wyі№czone buforowanie
Korekta poіoїenia dla odczytu: 12
Nadczytywanie w obszarach LeadIn i LeadOut : Nie

Uїyty format wyjњciowy: Monkey's Audio Lossless Encoder v3.99 DLL
Normal Lossless Compression

Inne opcje:
Dopeіnienie cisz№ brakuj№cych przesuniкtych prуbek : Tak
Usuwanie pocz№tkowych i koсcowych blokуw ciszy : Nie
Wewnкtrzny interfejs Win32 dla Windows NT i 2000


Stan i bікdy zakresu
Wybrany zakres
Њcieїka pliku D:\_z _Ripy\T S A - Heavy Metal World.ape

Poziom wysterowania 97.7 %
Jakoњж zakresu 100.0 %
Suma kontrolna 16717AB2
Kopia bezbікdna

Nie byіo bікdуw

Koniec raportu


Megaupload


Top
 Profile  
 
 
PostPosted: 03 May 2010 
Хиппей (support team)
User avatar
Joined: 30 Jul 2007
Posts: 113537
Lоcаtion: Киев (Kyiv, UA)
Age: 46
Name: Andrey
:thanx:

mirror: Narod

_________________


Top
 Profile E-mail  
 
 
PostPosted: 03 May 2010 
труъ антисионист
User avatar
Joined: 01 Aug 2007
Posts: 4544
Lоcаtion: Откуда и большинство из нас
Age: 38
Name: Дядя Вова
Спасибо. У меня есть виниловая копия, теперь сравню с сд!

_________________
Image
Image


Top
 Profile  
 
 
PostPosted: 04 May 2010 
Почётный металлург
User avatar
Joined: 15 Sep 2007
Posts: 4358
Lоcаtion: Хабаровск
Age: 59
Name: чуть выше
:thanx:

_________________
Коль будешь людей ты ослами честить,
тебе человеком меж них не прослыть!
(Саади, персидский поэт, 13в.)


Top
 Profile  
 
 
PostPosted: 06 May 2010 
Генеральный thrasher
User avatar
Joined: 03 Oct 2008
Posts: 3714
Lоcаtion: Ханты-Мансийский АО
Age: 44
Name: Сергей
Альбом конечно обалденный!Прям Accept польский раннего разлива.Переслушиваю уже который раз...Кардинально отличается от Spunk,записанного годом раньше.Там более блюзовая музычка.Но этот бомба.


Top
 Profile  
 
 
PostPosted: 12 Aug 2011 
Power Metal Maniac
User avatar
Joined: 09 Aug 2008
Posts: 6771
Lоcаtion: Москва
Age: 41
Name: Егор
Бомба? Да ну, так себе.

Одна из старейших польских тяжелых групп. Этот альбом по сути представляет собой перезаписанный материал с двух предыдущих пластинок, исполненный на английском языке.
Вышло совсем неоригинально, смесь Accept и AC/DC, как по музыке, так и по вокалу. Как всегда выделю скоротсные вещи - Lunatic Dancing и Race Machine Hero, а вот остальное тягомотно и неинтересно, все риффы и мелодии уже были сыграны вышеупомянутыми группами.
Для любителей традиционного старого Hard'n'Heavy.
4.0/6.0.
12.08.2011

_________________
Long Live Metal!


Top
 Profile  
 
Display posts from previous:  Sort by  
Post new topic Reply to topic  [ 6 posts ] 

All times are UTC + 3 hours


Who is online

Users browsing this forum: No registered users and 1 guest


You cannot post new topics in this forum
You cannot reply to topics in this forum
You cannot edit your posts in this forum
You cannot delete your posts in this forum
You cannot post attachments in this forum

Search for:
Яндекс.Метрика
Powered by phpBB © 2000, 2002, 2005, 2007 phpBB Group