\m/ 80's metal \m/

Информационно-аналитический форум "80 см пыли" (In Search We Trust) "У нас никто никуда не спешит"
Me For You - http://me-4u.com
It is currently 21 Oct 2019

All times are UTC + 3 hours

Spoiler
Chat - temporary registration for foreign users (please leave your application here)







Post new topic Reply to topic  [ 3 posts ] 
Author Message
 
PostPosted: 29 Apr 2010 
Хиппей (support team)
User avatar
Joined: 30 Jul 2007
Posts: 114979
Lоcаtion: Киев (Kyiv, UA)
Age: 46
Name: Andrey
TSA - 1982 - Czerwony (remastered) [ape]

Image

Genre: Hard Rock/Heavy Metal
Location: Poland
Format: ape+cue+log
Size: 301 Mb


Line-up:
MAREK KAPЈON - perkusja,
STEFAN MACHEL - gitara,
JANUSZ NIEKRASZ - bass,
ANDRZEJ NOWAK - gitara, vocal
MAREK PIEKARCZYK - vocal

1. WYSOKIE SFERY (S. Machel, M. Piekarczyk - J. Rzehak, M. Piekarczyk)
2. LUDZIE JAK DYNIE (A. Nowak, - A. Jakubowicz)
3. NOCNY SABAT (A. Nowak, M. Piekarczyk - J. Rzehak)
4. TRZY ZAPAЈKI (A. Nowak, M. Piekarczyk - wg. wiersza J. Praeverta)
5. NA CO CIК STAЖ (S. Machel - J. Rzehak)
6. JEDEN KROCZEK (S. Machel - J. Rzehak, M. Piekarczyk)
7. TWOJE SUMIENIE (J. Niekrasz, M. Piekarczyk - J. Rzehak, M. Piekarczyk)
8. BEZ PODTEKSTУW (A. Nowak - J. Rzehak, M. Piekarczyk)

Bonus:
9. Mass Media (M.Piekarczyk - J.Rzehak)
10. Wpadka (A.Nowak, M.Piekarczyk - J.Rzehak)


MultiUp l Narod

Нормальненький такой альбомчик под пиво... :meloman: От харда до хэви и обратно.
Кто и когда переиздал альбом на диске, уточняю...

Все спасибо польскому ослосайту http://osiolek.com

log
EAC extraction logfile from 31. May 2006, 7:35 for CD
TSA / Czerwony

Used drive : PIONEER DVD-RW DVR-108 Adapter: 1 ID: 0
Read mode : Secure with NO C2, accurate stream, disable cache
Read offset correction : 48
Overread into Lead-In and Lead-Out : No

Used output format : Internal WAV Routines
44.100 Hz; 16 Bit; Stereo

Other options :
Fill up missing offset samples with silence : Yes
Delete leading and trailing silent blocks : No
Installed external ASPI interface


Range status and errors
Selected range
Filename C:\TSA - 1982 (Czerwony)\TSA - Czerwony.wav

Peak level 97.7 %
Range quality 100.0 %
CRC 2A2C3210
Copy OK

No errors occured

End of status report

------------------------------------------------------------

EAC extraction logfile from 31. May 2006, 7:35 for CD
TSA / Czerwony

Used drive : PIONEER DVD-RW DVR-108 Adapter: 1 ID: 0
Read mode : Secure with NO C2, accurate stream, disable cache
Read offset correction : 48
Overread into Lead-In and Lead-Out : No

Used output format : Internal WAV Routines
44.100 Hz; 16 Bit; Stereo

Other options :
Fill up missing offset samples with silence : Yes
Delete leading and trailing silent blocks : No
Installed external ASPI interface


Range status and errors
Selected range
Filename C:\TSA - 1982 (Czerwony)\TSA - Czerwony.wav

Peak level 97.7 %
Range quality 100.0 %
CRC 2A2C3210
Copy OK

No errors occured

End of status report


cue
REM GENRE "Heavy Metal"
REM DATE 1982
REM DISCID 930B9C0B
REM COMMENT "ExactAudioCopy v0.95b4"
PERFORMER "TSA"
TITLE "Czerwony"
FILE "TSA - Czerwony.wav" WAVE
TRACK 01 AUDIO
TITLE "Wysokie Sfery"
PERFORMER "TSA"
INDEX 01 00:00:00
TRACK 02 AUDIO
TITLE "Ludzie Jak Dynie"
PERFORMER "TSA"
INDEX 01 05:16:41
TRACK 03 AUDIO
TITLE "Nocny Sabat"
PERFORMER "TSA"
INDEX 01 09:01:61
TRACK 04 AUDIO
TITLE "Trzy Zapaіki"
PERFORMER "TSA"
INDEX 01 12:06:12
TRACK 05 AUDIO
TITLE "Na Co Ciк Staж?"
PERFORMER "TSA"
INDEX 01 17:16:62
TRACK 06 AUDIO
TITLE "Jeden Kroczek"
PERFORMER "TSA"
INDEX 01 21:33:15
TRACK 07 AUDIO
TITLE "Twoje Sumienie"
PERFORMER "TSA"
INDEX 01 25:57:09
TRACK 08 AUDIO
TITLE "Bez Podtekstуw"
PERFORMER "TSA"
INDEX 01 29:38:45
TRACK 09 AUDIO
TITLE "Mass Media"
PERFORMER "TSA"
INDEX 01 34:38:08
TRACK 10 AUDIO
TITLE "Wpadka"
PERFORMER "TSA"
INDEX 01 38:34:29

_________________


Top
 Profile E-mail  
 
 
PostPosted: 30 Apr 2010 
Почётный металлург
User avatar
Joined: 15 Sep 2007
Posts: 4358
Lоcаtion: Хабаровск
Age: 59
Name: чуть выше
Спасибо, Андрей! Люблю этих поляков.

_________________
Коль будешь людей ты ослами честить,
тебе человеком меж них не прослыть!
(Саади, персидский поэт, 13в.)


Top
 Profile  
 
 
PostPosted: 02 May 2010 
Работнечег
User avatar
Joined: 28 Aug 2007
Posts: 6035
Lоcаtion: г. Москва
Age: 30
Name: Дима
Спасибки! :thanx:


Top
 Profile E-mail  
 
Display posts from previous:  Sort by  
Post new topic Reply to topic  [ 3 posts ] 

All times are UTC + 3 hours


Who is online

Users browsing this forum: No registered users and 1 guest


You cannot post new topics in this forum
You cannot reply to topics in this forum
You cannot edit your posts in this forum
You cannot delete your posts in this forum
You cannot post attachments in this forum

Search for:
Яндекс.Метрика
Powered by phpBB © 2000, 2002, 2005, 2007 phpBB Group