\m/ 80's metal \m/

Информационно-аналитический форум "80 см пыли" (In Search We Trust) "У нас никто никуда не спешит"
Me For You - http://me-4u.com
It is currently 21 Jul 2019

All times are UTC + 3 hours

Spoiler
Chat - temporary registration for foreign users (please leave your application here)







Post new topic Reply to topic  [ 1 post ] 
Author Message
 
PostPosted: 25 Apr 2010 
metallpaparazzy
User avatar
Joined: 20 Dec 2009
Posts: 674
Lоcаtion: Днепропетровск
Age: 44
Name: Геннадий
Image

Craveman

Studio album by Ted Nugent
Released September 24, 2002
Recorded 2002
Genre Hard rock/Heavy metal
Length 56:06
Label Spitfire Records
Producer Drew Peters, Chris Peters

1."Klstrphnky" (Nugent) – 3:55
2."Crave" (Blades, Nugent) – 6:19
3."Rawdogs and Warhogs" (Nugent) – 3:37
4."Damned If Ya Do" (Blades, Nugent, Shaw) – 4:21
5."At Home There" (Lynch, Nugent, Wells) – 3:49
6."Cum N Gitya Sum-O-This" (Nugent) – 2:37
7."Change My Sex" (Nugent) – 3:03
8."I Won’t Go Away" (Johnson, Nugent) – 5:32
9."Pussywhipped" (Nugent) – 3:00
10."Goin Down Hard" (Lutz, Nugent, Reed) – 4:13
11."Wang Dang Doodle" (Nugent) – 2:58
12."My Baby Likes My Butter On Her Gritz" (Mendoza, Nugent) - 3:52
13."Sexpot" (Nugent) – 3:11
14."Earthtones" (Mendoza, Nugent) – 5:39

Ted Nugent - Lead Guitar, Vocals
Marco Mendoza - Bass Guitar, Backing vocals
Tommy Clufetos - Drums
cue
REM GENRE "Hard Rock"
REM DATE 2002
REM DISCID CC0D2D0E
REM COMMENT "ExactAudioCopy v0.95b4"
PERFORMER "Ted Nugent "
TITLE "Craveman "
FILE "Ted Nugent - Craveman .wav" WAVE
TRACK 01 AUDIO
TITLE "Klstrphnky"
PERFORMER "Ted Nugent "
INDEX 01 00:00:00
TRACK 02 AUDIO
TITLE "Crave"
PERFORMER "Ted Nugent "
INDEX 00 03:54:37
INDEX 01 03:55:74
TRACK 03 AUDIO
TITLE "Rawdogs and Warhogs"
PERFORMER "Ted Nugent "
INDEX 01 10:15:08
TRACK 04 AUDIO
TITLE "Damned If Ya Do"
PERFORMER "Ted Nugent "
INDEX 00 13:51:06
INDEX 01 13:52:15
TRACK 05 AUDIO
TITLE "At Home There"
PERFORMER "Ted Nugent "
INDEX 00 18:12:70
INDEX 01 18:14:04
TRACK 06 AUDIO
TITLE "Cum N Gitya Sum-O-This"
PERFORMER "Ted Nugent "
INDEX 01 22:03:50
TRACK 07 AUDIO
TITLE "Change My Sex"
PERFORMER "Ted Nugent "
INDEX 01 24:41:41
TRACK 08 AUDIO
TITLE "I Won’t Go Away"
PERFORMER "Ted Nugent "
INDEX 00 27:43:06
INDEX 01 27:45:24
TRACK 09 AUDIO
TITLE "Pussywhipped"
PERFORMER "Ted Nugent "
INDEX 01 33:17:51
TRACK 10 AUDIO
TITLE "Goin Down Hard"
PERFORMER "Ted Nugent "
INDEX 01 36:17:58
TRACK 11 AUDIO
TITLE "Wang Dang Doodle"
PERFORMER "Ted Nugent "
INDEX 01 40:31:33
TRACK 12 AUDIO
TITLE "My Baby Likes My Butter On Her Gritz"
PERFORMER "Ted Nugent "
INDEX 01 43:29:43
TRACK 13 AUDIO
TITLE "Sexpot"
PERFORMER "Ted Nugent "
INDEX 00 47:20:73
INDEX 01 47:22:11
TRACK 14 AUDIO
TITLE "Earthtones"
PERFORMER "Ted Nugent "
INDEX 00 50:32:12
INDEX 01 50:33:54


log
Отчёт EAC об извлечении, выполненном 24. апреля 2010, 22:44 для диска:
Ted Nugent / Craveman

Дисковод: Optiarc DVD RW AD-7170S Adapter: 1 ID: 1
Режим чтения: Достоверный (C2: нет, Точный поток: да, Отключение кэша: да)
Коррекция смещения при чтении: 48
Способность читать области Lead-in и Lead-out : Нет

Выходной формат: Внутренние WAV-операции
44.100 Гц; 16 бит; стерео

Другие параметры:
Заполнение пропущенных сэмплов тишиной : Да
Удаление блоков с тишиной в начале и конце : Нет
Установленный внешний ASPI-интерфейс


Характеристики диапазона извлечения и сообщения об ошибках
Выбранный диапазон
Имя файла C:\Documents and Settings\Admin\Рабочий стол\ЛОСИНАЯ ФЕРМА\МОИ ЛОСИ\TED NUGET\2002\Ted Nugent - Craveman .wav

Пиковый уровень 98.8 %
Качество диапазона 100.0 %
CRC A42E407D
Копирование... OK

Ошибок не произошло

Конец отчёта


http://www.multiupload.com/6IPDNW5XSD TED02(FLAC).rar (414.9 MB)

http://www.multiupload.com/SQGWPY5PMI TED02[320].rar (142.34 MB)

Рип мой, фирма. картинки в наличии.
Драйвовый альбомчик! :true: когда-то слыхал его краем уха, а тут недавно предложили ченч на выгодных условиях -- согласился. и решил, что в коллекшине ентот цд совсем не лишний будет!
Простой, качевый, мелодичный... :meloman:


Top
 Profile E-mail  
 
Display posts from previous:  Sort by  
Post new topic Reply to topic  [ 1 post ] 

All times are UTC + 3 hours


Who is online

Users browsing this forum: No registered users and 2 guests


You cannot post new topics in this forum
You cannot reply to topics in this forum
You cannot edit your posts in this forum
You cannot delete your posts in this forum
You cannot post attachments in this forum

Search for:
Яндекс.Метрика
Powered by phpBB © 2000, 2002, 2005, 2007 phpBB Group