\m/ 80's metal \m/

Информационно-аналитический форум "80 см пыли" (In Search We Trust) "У нас никто никуда не спешит"
Me For You - http://me-4u.com
It is currently 20 Oct 2019

All times are UTC + 3 hours

Spoiler
Chat - temporary registration for foreign users (please leave your application here)







Post new topic Reply to topic  [ 8 posts ] 
Author Message
 
PostPosted: 24 Apr 2010 
Генеральный thrasher
User avatar
Joined: 03 Oct 2008
Posts: 3741
Lоcаtion: Ханты-Мансийский АО
Age: 44
Name: Сергей
Image

Year:1982 (Remastered 2009)
Style:Thrash Metal
Country:Poland
Audio:Ape+Cue+Log
Size:444Mb

Tracklist:
01. Szalony Ikar :03:39
02. Przegadane Dni :04:13
03. W Sobie :05:03
04. Ktos Zamienil :03:16
05. Pozorne Zycie :03:12
06. Toczy Sie Po Linie :05:03
07. Nie Znaczysz Nic :03:28
08. Mowili Kiedys :03:08
09. Dorosle Dzieci :07:29
10. Coraz Mniej (bonus) :04:54
11. Pierwsza Forsa W Tym Miesiacu (bonus) :04:29
12. Ach Nie Badz Taki Smialy (bonus) :04:01
13. Jak W Ogien (bonus) :05:08
14. Fabryka Keksow (bonus live) :12:21

Megaupload

Отличное переиздание от Metal Mind.Чем-то временами этот альбом напоминает ранних "Iron Maiden".

log
Отчёт EAC об извлечении, выполненном 5. октября 2009, 19:50 для диска:
Turbo / Dorosle Dzieci (Remastering 2009)

Дисковод: HL-DT-STDVDRAM GH20NS10 Adapter: 1 ID: 0
Режим чтения: Достоверный (C2: нет, Точный поток: да, Отключение кэша: да)
Комбинированное смещение чтения/записи: 667
Способность читать области Lead-in и Lead-out : Нет

Выходной формат: Внутренние WAV-операции
44.100 Гц; 16 бит; стерео

Другие параметры:
Заполнение пропущенных сэмплов тишиной : Да
Удаление блоков с тишиной в начале и конце : Нет
Встроенный Win32-интерфейс для Win NT/2000


Характеристики диапазона извлечения и сообщения об ошибках
Выбранный диапазон
Имя файла D:\Музыка\Turbo - Dorosle Dzieci (1982-83) APE\Turbo - Dorosle Dzieci (Remastering 2009).wav

Пиковый уровень 100.0 %
Качество диапазона 100.0 %
CRC 5B3132D4
Копирование... OK

Ошибок не произошло

Конец отчёта

cue
REM GENRE "Hard Rock"
REM DATE 1983
REM DISCID C911AA0F
REM COMMENT "ExactAudioCopy v0.95b4"
PERFORMER "Turbo"
TITLE "Dorosle Dzieci (Remastering 2009)"
FILE "Turbo - Dorosle Dzieci (Remastering 2009).wav" WAVE
TRACK 01 AUDIO
TITLE "Szalony Ikar"
PERFORMER "Turbo"
ISRC PLA640805577
FLAGS DCP
INDEX 01 00:00:00
TRACK 02 AUDIO
TITLE "Przegadane Dni"
PERFORMER "Turbo"
ISRC PLA640805578
FLAGS DCP
INDEX 01 03:39:52
TRACK 03 AUDIO
TITLE "W Sobie"
PERFORMER "Turbo"
ISRC PLA640805579
FLAGS DCP
INDEX 01 07:53:00
TRACK 04 AUDIO
TITLE "Ktos Zamienil"
PERFORMER "Turbo"
ISRC PLA640805580
FLAGS DCP
INDEX 01 12:56:31
TRACK 05 AUDIO
TITLE "Pozorne Zycie"
PERFORMER "Turbo"
ISRC PLA640805581
FLAGS DCP
INDEX 01 16:12:50
TRACK 06 AUDIO
TITLE "Toczy Sie Po Linie"
PERFORMER "Turbo"
ISRC PLA640805582
FLAGS DCP
INDEX 01 19:24:62
TRACK 07 AUDIO
TITLE "Nie Znaczysz Nic"
PERFORMER "Turbo"
ISRC PLA640805583
FLAGS DCP
INDEX 01 24:28:21
TRACK 08 AUDIO
TITLE "Mowili Kiedys"
PERFORMER "Turbo"
ISRC PLA640805584
FLAGS DCP
INDEX 01 27:56:29
TRACK 09 AUDIO
TITLE "Dorosle Dzieci"
PERFORMER "Turbo"
ISRC PLA640805585
FLAGS DCP
INDEX 01 31:04:62
TRACK 10 AUDIO
TITLE "Coraz Mniej (bonus)"
PERFORMER "Turbo"
ISRC PLA640805586
FLAGS DCP
INDEX 01 38:33:63
TRACK 11 AUDIO
TITLE "Pierwsza Forsa W Tym Miesiacu (bonus)"
PERFORMER "Turbo"
ISRC PLA640805587
FLAGS DCP
INDEX 01 43:28:42
TRACK 12 AUDIO
TITLE "Ach Nie Badz Taki Smialy (bonus)"
PERFORMER "Turbo"
ISRC PLA640805588
FLAGS DCP
INDEX 01 47:58:11
TRACK 13 AUDIO
TITLE "Jak W Ogien (bonus)"
PERFORMER "Turbo"
ISRC PLA640805589
FLAGS DCP
INDEX 01 51:59:74
TRACK 14 AUDIO
TITLE "Fabrika Keksow (bonus live)"
PERFORMER "Turbo"
ISRC PLA640805590
FLAGS DCP
INDEX 01 57:08:48

scans
Image
Image
Image
Image
Image
Image
Image
Image
Image
Image


Top
 Profile  
 
 
PostPosted: 24 Apr 2010 
труъ антисионист
User avatar
Joined: 01 Aug 2007
Posts: 4544
Lоcаtion: Откуда и большинство из нас
Age: 38
Name: Дядя Вова
Огромное спасибо, я и не чаял найти этот альбом в лосях! :thanx:

_________________
Image
Image


Top
 Profile  
 
 
PostPosted: 24 Apr 2010 
А может смените мне статус?..
Joined: 03 Jul 2009
Posts: 885
Lоcаtion: Serbia
Name: Laki
Thank you!!


Top
 Profile E-mail  
 
 
PostPosted: 24 Apr 2010 
Хиппей (support team)
User avatar
Joined: 30 Jul 2007
Posts: 114974
Lоcаtion: Киев (Kyiv, UA)
Age: 46
Name: Andrey
:thanx:

mirror: Narod l M-Cloud

_________________


Top
 Profile E-mail  
 
 
PostPosted: 24 Apr 2010 
Генеральный thrasher
User avatar
Joined: 03 Oct 2008
Posts: 3741
Lоcаtion: Ханты-Мансийский АО
Age: 44
Name: Сергей
Друзья,всё для вас! :true:


Top
 Profile  
 
 
PostPosted: 24 Apr 2010 
Прокъмитолист
User avatar
Joined: 12 Aug 2007
Posts: 6628
Lоcаtion: Санктъ-Петербуркъ
Age: 52
Name: Олекъ
думал все от этих поляков собрал, ан нет. спасибо, Сереж! :true:

_________________
прокъметол - это музыко, от которово есть прок (ы)


Top
 Profile  
 
 
PostPosted: 04 Aug 2011 
ТрэшЭрос
User avatar
Joined: 18 Jul 2011
Posts: 2305
Lоcаtion: Гулькевичи
Age: 44
Name: Александр
:thanx:

_________________
Thrash no trash!!!


Top
 Profile E-mail  
 
 
PostPosted: 06 Dec 2013 
Хиппей (support team)
User avatar
Joined: 30 Jul 2007
Posts: 114974
Lоcаtion: Киев (Kyiv, UA)
Age: 46
Name: Andrey
Дебютный альбом легендарной группы так же оказался весьма трушен :true:
Здесь еще коллектив нарезает далеко не трэш, а только-только созревший Heavy Metal, но альбом уже весьма мелодичен и бескомпромиссен.
В качестве бонусов заловые композиции из раннего периода. Там вообще группа играла хард-рок такой затяжной, почти прогрессивный :meloman:

_________________


Top
 Profile E-mail  
 
Display posts from previous:  Sort by  
Post new topic Reply to topic  [ 8 posts ] 

All times are UTC + 3 hours


Who is online

Users browsing this forum: No registered users and 1 guest


You cannot post new topics in this forum
You cannot reply to topics in this forum
You cannot edit your posts in this forum
You cannot delete your posts in this forum
You cannot post attachments in this forum

Search for:
Яндекс.Метрика
Powered by phpBB © 2000, 2002, 2005, 2007 phpBB Group