\m/ 80's metal \m/

Информационно-аналитический форум "80 см пыли" (In Search We Trust) "У нас никто никуда не спешит"
Me For You - http://me-4u.com
It is currently 15 Oct 2019

All times are UTC + 3 hours

Spoiler
Chat - temporary registration for foreign users (please leave your application here)







Post new topic Reply to topic  [ 1 post ] 
Author Message
 
PostPosted: 19 Apr 2010 
Old Time Rock`n`Roll
User avatar
Joined: 23 Jun 2008
Posts: 3490
Warnings: 1
Lоcаtion: г.Ульяновск
Age: 41
Name: Константин
Tuff Luck – Tuff Luck (1987)

Image

Year: 1987
Style: Traditional/Melodic/Glam Metal
Country: USA
Format: APE + cue
Size: 293 Mb

Tracklist
01. Tonight! Tonight! (3:09)
02. Take It Or Leave It (3:43)
03. Time Will Tell (3:30)
04. Sleaze If You Please (2:55)
05. Stranger In The Night (3:55)
06. Up And Down (4:05)
07. Out On The Run (2:49)
08. Going Nowhere (3:14)
09. I.O.U. (3:10)
10. Sad And Lonely (3:37)
11. Parkside Madness (3:37)
12. Little Black Book (2:59)

TPT – 40:59

Line-Up
Dave Scott - Guitar
Kenny Allen - Bass
Kenny Monroe - Vocals
Todd Kelly – Drums

Album Credits:
Produced: Tuff Luck

APE
ifolder-APE

Cue
REM GENRE Misc
REM DISCID 95099B0C
REM COMMENT "ExactAudioCopy v0.95b2"
PERFORMER "Tuff Luck"
TITLE "Tuff Luck"
FILE "Tuff Luck 1987 Tuff Luck.ape" WAVE
TRACK 01 AUDIO
TITLE "Tonight Tonight"
PERFORMER "Tuff Luck"
INDEX 01 00:00:00
TRACK 02 AUDIO
TITLE "Take It Or Leave It"
PERFORMER "Tuff Luck"
INDEX 01 03:10:10
TRACK 03 AUDIO
TITLE "Time Will Tell"
PERFORMER "Tuff Luck"
INDEX 01 06:54:30
TRACK 04 AUDIO
TITLE "Sleaze If You Please"
PERFORMER "Tuff Luck"
INDEX 01 10:25:54
TRACK 05 AUDIO
TITLE "Stranger Of The Night"
PERFORMER "Tuff Luck"
INDEX 01 13:22:34
TRACK 06 AUDIO
TITLE "Up And Down"
PERFORMER "Tuff Luck"
INDEX 01 17:18:45
TRACK 07 AUDIO
TITLE "Out On The Run"
PERFORMER "Tuff Luck"
INDEX 01 21:25:18
TRACK 08 AUDIO
TITLE "Going Nowhere"
PERFORMER "Tuff Luck"
INDEX 01 24:15:57
TRACK 09 AUDIO
TITLE "I.O.U."
PERFORMER "Tuff Luck"
INDEX 01 27:31:12
TRACK 10 AUDIO
TITLE "Sad And Lonely"
PERFORMER "Tuff Luck"
INDEX 01 30:43:05
TRACK 11 AUDIO
TITLE "Parkside Madness"
PERFORMER "Tuff Luck"
INDEX 01 34:21:34
TRACK 12 AUDIO
TITLE "Little Black Book"
PERFORMER "Tuff Luck"
INDEX 01 37:59:61


Все сделал Артем, ему все благодарности за редкий альбом, я только новость оформил, т.к. у него какие-то проблемы с интернетом. Лога нет, рип в виде образа APE. Обложки можно легко найти в сети например на cover-paradise.

Image


Top
 Profile  
 
Display posts from previous:  Sort by  
Post new topic Reply to topic  [ 1 post ] 

All times are UTC + 3 hours


Who is online

Users browsing this forum: No registered users and 2 guests


You cannot post new topics in this forum
You cannot reply to topics in this forum
You cannot edit your posts in this forum
You cannot delete your posts in this forum
You cannot post attachments in this forum

Search for:
Яндекс.Метрика
Powered by phpBB © 2000, 2002, 2005, 2007 phpBB Group