\m/ 80's metal \m/

Информационно-аналитический форум "80 см пыли" (In Search We Trust) "У нас никто никуда не спешит"
Me For You - http://me-4u.com
It is currently 16 Sep 2019

All times are UTC + 3 hours

Spoiler
Chat - temporary registration for foreign users (please leave your application here)







Post new topic Reply to topic  [ 25 posts ]  Go to page 1, 2  Next
Author Message
 
PostPosted: 15 Apr 2010 
Генеральный thrasher
User avatar
Joined: 03 Oct 2008
Posts: 3730
Lоcаtion: Ханты-Мансийский АО
Age: 44
Name: Сергей
Image

Year:1986 (2000 Re-Issue)
Style:Thrash Metal
Country:Poland
Audio:Ape+Cue+Log
Size:294Mb

Tracklist:
01. Zolnierz Fortuny (3:56)
02. Dlon Potwora (5:10)
03. Sztuczne Oddychanie (2:55)
04. Kometa Halleya (5:24)
05. Kawaleria Szatana Cz.I (3:57)
06. Wybacz Wszystkim Wrogom (6:45)
07. Kawaleria Szatana Cz.II (3:39)
08. Ostatni Grzesznikуw Placz (3:58)
09. Bramy Galaktyk - utwуr instrumentalny (3:45)

Cue
REM GENRE Heavy Metal
REM DATE 1986
REM DISCID 7C094109
REM COMMENT ExactAudioCopy v0.99pb1
PERFORMER "Turbo"
TITLE "Kawaleria szatana"
FILE "Turbo - Kawaleria szatana.ape" WAVE
TRACK 01 AUDIO
TITLE "Zolnierz Fortuny"
INDEX 01 00:00:00
TRACK 02 AUDIO
TITLE "Dlon Potwora"
INDEX 00 03:53:49
INDEX 01 03:55:49
TRACK 03 AUDIO
TITLE "Sztuczne Oddychanie"
INDEX 00 09:03:43
INDEX 01 09:05:43
TRACK 04 AUDIO
TITLE "Kometa Halleya"
INDEX 00 11:59:05
INDEX 01 12:01:05
TRACK 05 AUDIO
TITLE "Kawaleria Szatana Cz.I"
INDEX 00 17:23:24
INDEX 01 17:25:24
TRACK 06 AUDIO
TITLE "Wybacz Wszystkim Wrogom"
INDEX 00 21:20:33
INDEX 01 21:22:33
TRACK 07 AUDIO
TITLE "Kawaleria Szatana Cz.II"
INDEX 00 28:05:68
INDEX 01 28:07:68
TRACK 08 AUDIO
TITLE "Ostatni Grzesznikуw Placz"
INDEX 00 31:44:51
INDEX 01 31:46:51
TRACK 09 AUDIO
TITLE "Bramy Galaktyk - utwуr instrumentalny"
INDEX 00 35:42:20
INDEX 01 35:44:20


Log
Exact Audio Copy V0.99 prebeta 1 from 25. May 2007

EAC extraction logfile from 30. July 2007, 19:42

Turbo / Kawaleria szatana

Used drive : HL-DT-STDVDRAM GSA-4163B Adapter: 1 ID: 1

Read mode : Secure
Utilize accurate stream : Yes
Defeat audio cache : Yes
Make use of C2 pointers : No

Read offset correction : 667
Overread into Lead-In and Lead-Out : No
Fill up missing offset samples with silence : Yes
Delete leading and trailing silent blocks : No
Used interface : Installed external ASPI interface

Used output format : User Defined Encoder
Selected bitrate : 32 kBit/s
Quality : High
Add ID3 tag : Yes
Command line compressor : F:\Archivos de programa\Exact Audio Copy\wapet.exe
Additional command line options : %d -t "Artist=%a" -t "Title=%t" -t "Album=%g" -t "Year=%y" -t "Track=%n" -t "Genre=%m" mac.exe %s %d -c3000


TOC of the extracted CD

Track | Start | Length | Start sector | End sector
---------------------------------------------------------
1 | 0:00.00 | 3:55.49 | 0 | 17673
2 | 3:55.49 | 5:09.69 | 17674 | 40917
3 | 9:05.43 | 2:55.37 | 40918 | 54079
4 | 12:01.05 | 5:24.19 | 54080 | 78398
5 | 17:25.24 | 3:57.09 | 78399 | 96182
6 | 21:22.33 | 6:45.35 | 96183 | 126592
7 | 28:07.68 | 3:38.58 | 126593 | 143000
8 | 31:46.51 | 3:57.44 | 143001 | 160819
9 | 35:44.20 | 3:45.20 | 160820 | 177714


Range status and errors

Selected range

Filename C:\Turbo - Kawaleria szatana.wav

Peak level 100.0 %
Range quality 100.0 %
Test CRC E8DFC084
Copy CRC E8DFC084
Copy OK


AccurateRip summary

Track 1 not present in database
Track 2 not present in database
Track 3 not present in database
Track 4 not present in database
Track 5 not present in database
Track 6 not present in database
Track 7 not present in database
Track 8 not present in database
Track 9 not present in database

No errors occurred

End of status report


Megaupload


Top
 Profile  
 
 
PostPosted: 15 Apr 2010 
дядя Миша
User avatar
Joined: 17 Oct 2008
Posts: 3182
Lоcаtion: USSR
Age: 57
Name: Khy
Для меня - это лучший альбом группы , классика.......таких еденицы.


Top
 Profile  
 
 
PostPosted: 16 Apr 2010 
Работнечег
User avatar
Joined: 28 Aug 2007
Posts: 5984
Lоcаtion: г. Москва
Age: 30
Name: Дима
Спасибо! :true: Один из немногих альбомов, которые я слушал у группы! Отличный музон, польский язык совсем не напрягает! Судя по отзывам это лучший альбом во всей их дискографиию.


Top
 Profile E-mail  
 
 
PostPosted: 18 Apr 2010 
Power Metal Maniac
User avatar
Joined: 09 Aug 2008
Posts: 6855
Lоcаtion: Москва
Age: 41
Name: Егор
:true:

_________________
Long Live Metal!


Top
 Profile  
 
 
PostPosted: 04 Aug 2011 
ТрэшЭрос
User avatar
Joined: 18 Jul 2011
Posts: 2304
Lоcаtion: Гулькевичи
Age: 44
Name: Александр
:thanx:

_________________
Thrash no trash!!!


Top
 Profile E-mail  
 
 
PostPosted: 06 Aug 2011 
Хиппей (support team)
User avatar
Joined: 30 Jul 2007
Posts: 114351
Lоcаtion: Киев (Kyiv, UA)
Age: 46
Name: Andrey
:thanx:

_________________


Top
 Profile E-mail  
 
 
PostPosted: 15 Dec 2012 
Хиппей (support team)
User avatar
Joined: 30 Jul 2007
Posts: 114351
Lоcаtion: Киев (Kyiv, UA)
Age: 46
Name: Andrey
Перезалейте лосика, плиз, кто имеет его у себя сейчас на винте.

_________________


Top
 Profile E-mail  
 
 
PostPosted: 15 Dec 2012 
ТрэшЭрос
User avatar
Joined: 18 Jul 2011
Posts: 2304
Lоcаtion: Гулькевичи
Age: 44
Name: Александр
Scatterbrain wrote:
на винте

у мя нема вже... :oops:

_________________
Thrash no trash!!!


Top
 Profile E-mail  
 
 
PostPosted: 16 Dec 2012 
Хиппей (support team)
User avatar
Joined: 30 Jul 2007
Posts: 114351
Lоcаtion: Киев (Kyiv, UA)
Age: 46
Name: Andrey
Vinyl rip :arrow: http://heavymetalrarities.com/forum/vie ... 13&p=13758 :oops:

_________________


Top
 Profile E-mail  
 
 
PostPosted: 16 Dec 2012 
консэрваторъ
User avatar
Joined: 11 Aug 2007
Posts: 17211
Lоcаtion: Псков
Age: 45
Name: Сергей
Scatterbrain wrote:
Vinyl rip

Ага, всё качабельно... И тут цд №5 в антологии 8 года (302 mB)...
Реап убрал пока, думаю в Метал Майндовском боксе использован именно тот диск с их же переиздания 2000 года...
А, и вот он у Ксю...

_________________
THRASH 'EM ALL


Top
 Profile E-mail  
 
 
PostPosted: 17 Dec 2012 
парень в очёчкXаX!
User avatar
Joined: 15 Aug 2007
Posts: 2353
Lоcаtion: UK'раина, г. ЛондАн Би-Би-Си
Age: 48
Name: Сергей
жестокие конечно по качеству эти Ди-паки от MM :fingal:
однако раритеты, выпускаемые ими, все-таки доминируют в настроении против ихнегА Q :meloman:

да, сорри, что не совсем по "теММе", но все-же в теММу, хде-тА и как-тА! :crazy:
напомните плиииз, по принципу, как вы это делали в разделе по поиску клетоШек,
как у вас в rateyourmusic выходил сразу целый список альбомов с клетошками...
сорри, немного заработался, подтупливаю, просто подскажите и все тут..

мне нужны все HMR комманды, выпущенные на польских пластинках, типа Pronit, Tonpress, Muza, Wifon...
ну что-бы не искать по одиночке...

или так нельзя сотворить, ааа?

:thanx:


Top
 Profile  
 
 
PostPosted: 27 Jul 2013 
Хиппей (support team)
User avatar
Joined: 30 Jul 2007
Posts: 114351
Lоcаtion: Киев (Kyiv, UA)
Age: 46
Name: Andrey
attax wrote:
или так нельзя сотворить, ааа?

Незя :pardon:

_________________


Top
 Profile E-mail  
 
 
PostPosted: 27 Jul 2013 
Хиппей (support team)
User avatar
Joined: 30 Jul 2007
Posts: 114351
Lоcаtion: Киев (Kyiv, UA)
Age: 46
Name: Andrey
Повторно уже тот же Серёгин рип перекачиваю у Оксанки к нам :dance:

Охренел с того, что там у неё под аватарками черепушки с рекламкой валяются :shok:
Это я на минутку ЭдБлокс отключил... :scratch:

_________________


Top
 Profile E-mail  
 
 
PostPosted: 27 Jul 2013 
Хиппей (support team)
User avatar
Joined: 30 Jul 2007
Posts: 114351
Lоcаtion: Киев (Kyiv, UA)
Age: 46
Name: Andrey
Аааа, тьху... Там на лысине черепа... время показывается :crazy: :shok: :true:

_________________


Top
 Profile E-mail  
 
 
PostPosted: 28 Jul 2013 
Хиппей (support team)
User avatar
Joined: 30 Jul 2007
Posts: 114351
Lоcаtion: Киев (Kyiv, UA)
Age: 46
Name: Andrey
Turbo - 1987 - Kawaleria Szatana (reissue by Metal Mind 2008) [flac]

ImageImageImage

F-Bit l Narod

Лучший альбом в дискографии группы :dance:
Просто слушаем и тащимся, прёмся и наслаждаемся :meloman:

10/10

log
Exact Audio Copy V1.0 beta 3 from 29. August 2011

EAC extraction logfile from 30. July 2012, 23:58

Turbo / Kawaleria Szatana

Used drive : Optiarc DVD RW AD-7170A Adapter: 0 ID: 0

Read mode : Secure
Utilize accurate stream : Yes
Defeat audio cache : Yes
Make use of C2 pointers : No

Read offset correction : 48
Overread into Lead-In and Lead-Out : No
Fill up missing offset samples with silence : Yes
Delete leading and trailing silent blocks : No
Null samples used in CRC calculations : Yes
Used interface : Native Win32 interface for Win NT & 2000

Used output format : Internal WAV Routines
Sample format : 44.100 Hz; 16 Bit; Stereo


TOC of the extracted CD

Track | Start | Length | Start sector | End sector
---------------------------------------------------------
1 | 0:00.00 | 3:55.32 | 0 | 17656
2 | 3:55.32 | 5:09.68 | 17657 | 40899
3 | 9:05.25 | 2:55.36 | 40900 | 54060
4 | 12:00.61 | 5:24.18 | 54061 | 78378
5 | 17:25.04 | 3:57.08 | 78379 | 96161
6 | 21:22.12 | 6:45.34 | 96162 | 126570
7 | 28:07.46 | 3:38.57 | 126571 | 142977
8 | 31:46.28 | 3:57.43 | 142978 | 160795
9 | 35:43.71 | 3:44.24 | 160796 | 177619


Range status and errors

Selected range

Filename D:\UPLOAD-Gosha7766\Turbo 1987 - Kawaleria Szatana\Turbo - Kawaleria Szatana.wav

Peak level 98.5 %
Extraction speed 3.7 X
Range quality 99.9 %
Test CRC 60B236D5
Copy CRC 60B236D5
Copy OK

No errors occurred


AccurateRip summary

Track 1 accurately ripped (confidence 1) [30D562E1] (AR v2)
Track 2 accurately ripped (confidence 1) [2DC16578] (AR v2)
Track 3 accurately ripped (confidence 1) [0E8DB991] (AR v2)
Track 4 accurately ripped (confidence 1) [1F4E4729] (AR v2)
Track 5 accurately ripped (confidence 1) [2C79403A] (AR v2)
Track 6 accurately ripped (confidence 1) [EF5BF073] (AR v2)
Track 7 accurately ripped (confidence 1) [E87642F9] (AR v2)
Track 8 accurately ripped (confidence 1) [9BB48D45] (AR v2)
Track 9 accurately ripped (confidence 1) [0C8F185C] (AR v2)

All tracks accurately ripped

End of status report

---- CUETools DB Plugin V2.1.3

[CTDB TOCID: PsJReoqk6SxMlWhysWzrzK3LylM-] disk not present in database, Submit result: PsJReoqk6SxMlWhysWzrzK3LylM- has been uploaded


==== Log checksum B147E0103F59F611665D5022EA61A1BBEC6DC385E281F097DBBA664A18425DCF ====

cue
REM GENRE "Heavy/Thrash Metal"
REM DATE 1986
REM DISCID 7A094009
REM COMMENT "ExactAudioCopy v1.0b3"
PERFORMER "Turbo"
TITLE "Kawaleria Szatana"
FILE "Turbo - Kawaleria Szatana.flac" WAVE
TRACK 01 AUDIO
TITLE "Zolnierz Fortuny"
PERFORMER "Turbo"
FLAGS DCP
INDEX 01 00:00:00
TRACK 02 AUDIO
TITLE "Dlon Potwora"
PERFORMER "Turbo"
FLAGS DCP
INDEX 01 03:55:32
TRACK 03 AUDIO
TITLE "Sztuczne Oddychanie"
PERFORMER "Turbo"
FLAGS DCP
INDEX 01 09:05:25
TRACK 04 AUDIO
TITLE "Kometa Halleya"
PERFORMER "Turbo"
FLAGS DCP
INDEX 01 12:00:61
TRACK 05 AUDIO
TITLE "Kawaleria Szatana Cz.I"
PERFORMER "Turbo"
FLAGS DCP
INDEX 01 17:25:04
TRACK 06 AUDIO
TITLE "Wybacz Wszystkim Wrogom"
PERFORMER "Turbo"
FLAGS DCP
INDEX 01 21:22:12
TRACK 07 AUDIO
TITLE "Kawaleria Szatana Cz.II"
PERFORMER "Turbo"
FLAGS DCP
INDEX 01 28:07:46
TRACK 08 AUDIO
TITLE "Ostatni Grzesznikow Placz"
PERFORMER "Turbo"
FLAGS DCP
INDEX 01 31:46:28
TRACK 09 AUDIO
TITLE "Bramy Galaktyk - utwor instrumentalny"
PERFORMER "Turbo"
FLAGS DCP
INDEX 01 35:43:71

_________________


Top
 Profile E-mail  
 
 
PostPosted: 29 Jul 2013 
\m/ 80 см сала \m/
User avatar
Joined: 12 Mar 2012
Posts: 2590
Age: 26
Name: Nick
Ха, примерно год назад впервые послушал этот альбом - дежавю прямо :scratch:
Посмотрим, как теперь "зайдет" год спустя.
thorbeorn, Scatterbrain :thanx:
p.s. Кто в курсе - что это с "e-rock.ru"? Зарегистрировался там месяца два назад, так он сразу же начал "падать", пока вообще не отказался у меня грузиться :benya:

_________________
1990 AUROPHON BRAINSTORM (Germany) - lossless
1994 MAUSOLEUM CLASSIX (Belgium-Germany) - lossless
1998 VA - GRIM HARVEST - Complete Metal Massacre Volumes I-XII


Top
 Profile  
 
 
PostPosted: 07 Aug 2013 
Доктор энтомологии
User avatar
Joined: 22 Jan 2009
Posts: 9878
Lоcаtion: Даугавпилс
Age: 44
Name: Алексей
:thanx: :true:


Top
 Profile  
 
 
PostPosted: 29 Sep 2014 
\m/ 80 см сала \m/
User avatar
Joined: 12 Mar 2012
Posts: 2590
Age: 26
Name: Nick
Так, а тру-издания 2000 года в чьих-то закромах сохранилось? Раньше было на е-роке, но ссылки сдохли.
Отличия изданий 2000/2001 от 2008 - уровень записи чуть ниже, верха не так люто свистят и вообще слушать более комфортно для ух :meloman:

_________________
1990 AUROPHON BRAINSTORM (Germany) - lossless
1994 MAUSOLEUM CLASSIX (Belgium-Germany) - lossless
1998 VA - GRIM HARVEST - Complete Metal Massacre Volumes I-XII


Top
 Profile  
 
 
PostPosted: 29 Sep 2014 
Хиппей (support team)
User avatar
Joined: 30 Jul 2007
Posts: 114351
Lоcаtion: Киев (Kyiv, UA)
Age: 46
Name: Andrey
Everhard wrote:
Кто в курсе - что это с "e-rock.ru"?

East Rock :umnik:
Я ж не поздно отреагировал? :dance:

_________________


Top
 Profile E-mail  
 
 
PostPosted: 29 Sep 2014 
\m/ 80 см сала \m/
User avatar
Joined: 12 Mar 2012
Posts: 2590
Age: 26
Name: Nick
Очень поздно, да еще и с учетом того, что я спрашивал не расшифровку названия, а причину почему сайт лежал сутками :benya:

_________________
1990 AUROPHON BRAINSTORM (Germany) - lossless
1994 MAUSOLEUM CLASSIX (Belgium-Germany) - lossless
1998 VA - GRIM HARVEST - Complete Metal Massacre Volumes I-XII


Top
 Profile  
 
Display posts from previous:  Sort by  
Post new topic Reply to topic  [ 25 posts ]  Go to page 1, 2  Next

All times are UTC + 3 hours


Who is online

Users browsing this forum: No registered users and 1 guest


You cannot post new topics in this forum
You cannot reply to topics in this forum
You cannot edit your posts in this forum
You cannot delete your posts in this forum
You cannot post attachments in this forum

Search for:
Яндекс.Метрика
Powered by phpBB © 2000, 2002, 2005, 2007 phpBB Group