\m/ 80's metal \m/

Информационно-аналитический форум "80 см пыли" (In Search We Trust) "У нас никто никуда не спешит"
Me For You - http://me-4u.com
It is currently 16 Sep 2019

All times are UTC + 3 hours

Spoiler
Chat - temporary registration for foreign users (please leave your application here)







Post new topic Reply to topic  [ 5 posts ] 
Author Message
 
PostPosted: 15 Apr 2010 
Генеральный thrasher
User avatar
Joined: 03 Oct 2008
Posts: 3730
Lоcаtion: Ханты-Мансийский АО
Age: 44
Name: Сергей
Image

Year:1985 (2000 Re-Issue)
Style:Thrash Metal
Country:Poland
Audio:Flac+Cue+Log
Size:283Mb

Tracklist:
01. Smak Ciszy (00:21)
02. Juz Nie Z Toba (03:04)
03. Caly Czas Ucza Nas (03:57)
04. Wariacki Taniec (04:03)
05. Slowa Pelne Slow (04:22)
06. Czy Mnie Nie Ma (04:25)
07. Jaki Byl Ten Dzien (04:40)
08. Wybieraj Sam (04:45)
09. Wszystko Bedzie O.K. (04:32)
10. Narodziny Demona (04:28)

Cue
PERFORMER "Turbo"
TITLE "Smak Ciszy"
FILE "Turbo - Smak Ciszy.flac" WAVE
TRACK 01 AUDIO
TITLE "Smak ciszy"
PERFORMER "Turbo"
INDEX 01 00:00:00
TRACK 02 AUDIO
TITLE "Juz nie z Toba"
PERFORMER "Turbo"
INDEX 01 00:21:35
TRACK 03 AUDIO
TITLE "Caly czas ucza nas"
PERFORMER "Turbo"
INDEX 00 03:24:32
INDEX 01 03:25:19
TRACK 04 AUDIO
TITLE "Wariacki taniec"
PERFORMER "Turbo"
INDEX 00 07:20:72
INDEX 01 07:21:62
TRACK 05 AUDIO
TITLE "Slowa pelne slow"
PERFORMER "Turbo"
INDEX 00 11:24:14
INDEX 01 11:24:73
TRACK 06 AUDIO
TITLE "Czy mnie nie ma"
PERFORMER "Turbo"
INDEX 00 15:45:63
INDEX 01 15:46:41
TRACK 07 AUDIO
TITLE "Jaki byl ten dzien"
PERFORMER "Turbo"
INDEX 00 20:09:69
INDEX 01 20:11:29
TRACK 08 AUDIO
TITLE "Wybieraj sam"
PERFORMER "Turbo"
INDEX 00 24:50:48
INDEX 01 24:51:06
TRACK 09 AUDIO
TITLE "Wszystko bedzie O.K."
PERFORMER "Turbo"
INDEX 00 29:34:42
INDEX 01 29:36:23
TRACK 10 AUDIO
TITLE "Narodziny demona"
PERFORMER "Turbo"
INDEX 00 34:07:29
INDEX 01 34:08:26


Log
EAC extraction logfile from 20. February 2005, 3:00 for CD
Turbo / Smak Ciszy

Used drive : LITE-ON LTR-32123S Adapter: 1 ID: 0
Read mode : Secure with NO C2, accurate stream, disable cache
Combined read/write offset correction : 0
Overread into Lead-In and Lead-Out : No

Used output format : C:\eaci\Codecs\flac.exe (User Defined Encoder)
32 kBit/s
Additional command line options : -6 -V -T "artist=%a" -T "title=%t" -T "album=%g" -T "date=%y" -T "tracknumber=%n" -T "genre=%m" -T "comment=EAC 0.95 prebeta5 / FLAC 1.1.0 k" %s

Other options :
Fill up missing offset samples with silence : Yes
Delete leading and trailing silent blocks : No
Native Win32 interface for Win NT & 2000


Range status and errors
Selected range
Filename C:\test\Turbo - Smak Ciszy.flac

Peak level 96.2 %
Range quality 100.0 %
CRC 0E1FD8DA
Copy OK

No errors occured

End of status report


Megaupload


Top
 Profile  
 
 
PostPosted: 16 Apr 2010 
Работнечег
User avatar
Joined: 28 Aug 2007
Posts: 5984
Lоcаtion: г. Москва
Age: 30
Name: Дима
Спасибо Серёг! :thanx:


Top
 Profile E-mail  
 
 
PostPosted: 16 Apr 2010 
А может смените мне статус?..
Joined: 03 Jul 2009
Posts: 883
Lоcаtion: Serbia
Name: Laki
Thanks. Excellent album !!!


Top
 Profile E-mail  
 
 
PostPosted: 04 Aug 2011 
ТрэшЭрос
User avatar
Joined: 18 Jul 2011
Posts: 2304
Lоcаtion: Гулькевичи
Age: 44
Name: Александр
:thanx:

_________________
Thrash no trash!!!


Top
 Profile E-mail  
 
 
PostPosted: 06 Aug 2011 
Хиппей (support team)
User avatar
Joined: 30 Jul 2007
Posts: 114351
Lоcаtion: Киев (Kyiv, UA)
Age: 46
Name: Andrey
:thanx:

_________________


Top
 Profile E-mail  
 
Display posts from previous:  Sort by  
Post new topic Reply to topic  [ 5 posts ] 

All times are UTC + 3 hours


Who is online

Users browsing this forum: No registered users and 1 guest


You cannot post new topics in this forum
You cannot reply to topics in this forum
You cannot edit your posts in this forum
You cannot delete your posts in this forum
You cannot post attachments in this forum

Search for:
Яндекс.Метрика
Powered by phpBB © 2000, 2002, 2005, 2007 phpBB Group