\m/ 80's metal \m/

Информационно-аналитический форум "80 см пыли" (In Search We Trust) "У нас никто никуда не спешит"
Me For You - http://me-4u.com
It is currently 18 Sep 2019

All times are UTC + 3 hours

Spoiler
Chat - temporary registration for foreign users (please leave your application here)







Post new topic Reply to topic  [ 8 posts ] 
Author Message
 
PostPosted: 05 Mar 2010 
Генеральный thrasher
User avatar
Joined: 03 Oct 2008
Posts: 3730
Lоcаtion: Ханты-Мансийский АО
Age: 44
Name: Сергей
Image

Year: 2009
Style: Thrash Metal
Country: Belgium
Audio: flac+cue+log
Size: 403b+289Mb
Label:Stormspell Records

Tracklist:
Disc 1
1. Mission to the Andes
2. Hordes of Insanity
3. They Walk in Front
4. Warriors of the Holy One
5. Nuclear Waste
6. The Gathering
7. Under Dominion (of Death)
8. Death Blow
9. Storm of Evil
10. Born for the Future
11. Beyond the Realms of Silence
12. Street Fighter
13. Dripping Wet
Disc 2
1. The Coming of Chaos
2. Ultimate Unity
3. Digital Regency
4. Absolution by Termination
5. Dehumanization
6. March of the Machines
7. Secret of the Dome
8. Master Project Genesis

Cue 1
REM GENRE "Thrash Metal"
REM DATE 2009
REM DISCID A10CA50D
REM COMMENT "ExactAudioCopy v0.99pb4"
PERFORMER "TARGET"
TITLE "Mission Executed"
FILE "TARGET - Mission Executed.flac" WAVE
TRACK 01 AUDIO
TITLE "Mission to the Andes"
PERFORMER "TARGET"
FLAGS DCP
INDEX 01 00:00:00
TRACK 02 AUDIO
TITLE "Hordes of Insanity"
PERFORMER "TARGET"
FLAGS DCP
INDEX 00 03:27:28
INDEX 01 03:29:28
TRACK 03 AUDIO
TITLE "They Walk in Front"
PERFORMER "TARGET"
FLAGS DCP
INDEX 00 08:42:65
INDEX 01 08:44:65
TRACK 04 AUDIO
TITLE "Warriors of the Holy One"
PERFORMER "TARGET"
FLAGS DCP
INDEX 00 13:44:65
INDEX 01 13:46:65
TRACK 05 AUDIO
TITLE "Nuclear Waste"
PERFORMER "TARGET"
FLAGS DCP
INDEX 00 18:35:65
INDEX 01 18:37:65
TRACK 06 AUDIO
TITLE "The Gathering"
PERFORMER "TARGET"
FLAGS DCP
INDEX 00 22:17:27
INDEX 01 22:19:27
TRACK 07 AUDIO
TITLE "Under Dominion (Of Death)"
PERFORMER "TARGET"
FLAGS DCP
INDEX 00 27:20:64
INDEX 01 27:22:64
TRACK 08 AUDIO
TITLE "Death Blow"
PERFORMER "TARGET"
FLAGS DCP
INDEX 00 31:30:26
INDEX 01 31:32:26
TRACK 09 AUDIO
TITLE "Storm of Evil('86 Mission Executed)"
PERFORMER "TARGET"
FLAGS DCP
INDEX 00 35:01:63
INDEX 01 35:03:63
TRACK 10 AUDIO
TITLE "Born for the Future('86 Mission Executed)"
PERFORMER "TARGET"
FLAGS DCP
INDEX 00 41:19:25
INDEX 01 41:21:25
TRACK 11 AUDIO
TITLE "Beyond the Realms of Silence('86 Mission Executed)"
PERFORMER "TARGET"
FLAGS DCP
INDEX 00 45:01:73
INDEX 01 45:03:71
TRACK 12 AUDIO
TITLE "Street Fighter('86 Mission Executed)"
PERFORMER "TARGET"
FLAGS DCP
INDEX 00 48:31:24
INDEX 01 48:33:24
TRACK 13 AUDIO
TITLE "Dripping wet('86 Mission Executed)"
PERFORMER "TARGET"
FLAGS DCP
INDEX 00 52:36:05
INDEX 01 52:38:05


Cue 2
REM GENRE Metal
REM DATE 2009
REM DISCID 6308BC08
REM COMMENT "ExactAudioCopy v0.99pb4"
PERFORMER "Target"
TITLE "Master Project Genesis"
FILE "Target - Master Project Genesis.flac" WAVE
TRACK 01 AUDIO
TITLE "The Coming Of Chaos"
PERFORMER "Target"
FLAGS DCP
INDEX 01 00:00:00
TRACK 02 AUDIO
TITLE "Ultimate Unity"
PERFORMER "Target"
FLAGS DCP
INDEX 00 03:54:71
INDEX 01 03:56:71
TRACK 03 AUDIO
TITLE "Digital Regency"
PERFORMER "Target"
FLAGS DCP
INDEX 00 08:55:01
INDEX 01 08:57:01
TRACK 04 AUDIO
TITLE "Absolution By Termination"
PERFORMER "Target"
FLAGS DCP
INDEX 00 12:58:74
INDEX 01 13:00:74
TRACK 05 AUDIO
TITLE "Dehumanization"
PERFORMER "Target"
FLAGS DCP
INDEX 00 18:59:72
INDEX 01 19:01:72
TRACK 06 AUDIO
TITLE "March Of The Machines"
PERFORMER "Target"
FLAGS DCP
INDEX 00 22:48:48
INDEX 01 22:50:47
TRACK 07 AUDIO
TITLE "Secret Of The Dome"
PERFORMER "Target"
FLAGS DCP
INDEX 00 25:56:59
INDEX 01 25:58:59
TRACK 08 AUDIO
TITLE "Master Project Genesis"
PERFORMER "Target"
FLAGS DCP
INDEX 00 31:06:72
INDEX 01 31:08:71


Log 1
Exact Audio Copy V0.99 prebeta 4 from 23. January 2008

Отчёт EAC об извлечении, выполненном 5. марта 2010, 18:59

TARGET / Mission Executed

Дисковод: ATAPI DVD A DH20A4P Adapter: 0 ID: 1

Режим чтения : Достоверность
Использование точного потока : Да
Отключение кэша аудио : Да
Использование указателей C2 : Нет

Коррекция смещения при чтении : 6
Способность читать области Lead-in и Lead-out : Нет
Заполнение пропущенных сэмплов тишиной : Да
Удаление блоков с тишиной в начале и конце : Нет
При вычислениях CRC использовались нулевые сэмплы : Нет
Интерфейс : Установленный внешний ASPI-интерфейс

Выходной формат : Пользовательский кодировщик
Выбранный битрейт : 768 kBit/s
Качество : Высокий
Добавление ID3-тэга : Нет
Утилита сжатия : C:\Program Files\Exact Audio Copy\FLAC\FLAC.EXE
Дополнительные параметры : -6 -V -T "ARTIST=%a" -T "TITLE=%t" -T "ALBUM=%g" -T "DATE=%y" -T "TRACKNUMBER=%n" -T "GENRE=%m" -T "COMMENT=%e" %s -o %d


TOC извлечённого CD

Трек | Старт | Длительность | Начальный сектор | Конечный сектор
---------------------------------------------------------------------
1 | 0:00.00 | 3:29.28 | 0 | 15702
2 | 3:29.28 | 5:15.37 | 15703 | 39364
3 | 8:44.65 | 5:02.00 | 39365 | 62014
4 | 13:46.65 | 4:51.00 | 62015 | 83839
5 | 18:37.65 | 3:41.37 | 83840 | 100451
6 | 22:19.27 | 5:03.37 | 100452 | 123213
7 | 27:22.64 | 4:09.37 | 123214 | 141925
8 | 31:32.26 | 3:31.37 | 141926 | 157787
9 | 35:03.63 | 6:17.37 | 157788 | 186099
10 | 41:21.25 | 3:42.46 | 186100 | 202795
11 | 45:03.71 | 3:29.28 | 202796 | 218498
12 | 48:33.24 | 4:04.56 | 218499 | 236854
13 | 52:38.05 | 1:19.09 | 236855 | 242788


Характеристики диапазона извлечения и сообщения об ошибках

Выбранный диапазон

Имя файла F:\Лоси\TARGET - Mission Executed.wav

Пиковый уровень 97.7 %
Качество диапазона 100.0 %
CRC копии 6B6C2C30
Копирование... OK

Ошибок не произошло


AccurateRip: сводка

Трек 1 точное извлечение (доверие 4) [F89AB48F]
Трек 2 точное извлечение (доверие 4) [58D21195]
Трек 3 точное извлечение (доверие 4) [24E930B9]
Трек 4 точное извлечение (доверие 4) [6DAEA3E8]
Трек 5 точное извлечение (доверие 4) [E4E5DC90]
Трек 6 точное извлечение (доверие 4) [73D7F012]
Трек 7 точное извлечение (доверие 4) [641FDB5C]
Трек 8 точное извлечение (доверие 4) [F3BD5E1F]
Трек 9 точное извлечение (доверие 4) [56AAFD31]
Трек 10 точное извлечение (доверие 4) [9B6EE73E]
Трек 11 точное извлечение (доверие 4) [AABAAF65]
Трек 12 точное извлечение (доверие 4) [1ED6F782]
Трек 13 точное извлечение (доверие 4) [04649A07]

Все треки извлечены точно

Конец отчёта


Log 2
Exact Audio Copy V0.99 prebeta 4 from 23. January 2008

Отчёт EAC об извлечении, выполненном 5. марта 2010, 19:22

Target / Master Project Genesis

Дисковод: ATAPI DVD A DH20A4P Adapter: 0 ID: 1

Режим чтения : Достоверность
Использование точного потока : Да
Отключение кэша аудио : Да
Использование указателей C2 : Нет

Коррекция смещения при чтении : 6
Способность читать области Lead-in и Lead-out : Нет
Заполнение пропущенных сэмплов тишиной : Да
Удаление блоков с тишиной в начале и конце : Нет
При вычислениях CRC использовались нулевые сэмплы : Нет
Интерфейс : Установленный внешний ASPI-интерфейс

Выходной формат : Пользовательский кодировщик
Выбранный битрейт : 768 kBit/s
Качество : Высокий
Добавление ID3-тэга : Нет
Утилита сжатия : C:\Program Files\Exact Audio Copy\FLAC\FLAC.EXE
Дополнительные параметры : -6 -V -T "ARTIST=%a" -T "TITLE=%t" -T "ALBUM=%g" -T "DATE=%y" -T "TRACKNUMBER=%n" -T "GENRE=%m" -T "COMMENT=%e" %s -o %d


TOC извлечённого CD

Трек | Старт | Длительность | Начальный сектор | Конечный сектор
---------------------------------------------------------------------
1 | 0:00.00 | 3:56.71 | 0 | 17770
2 | 3:56.71 | 5:00.05 | 17771 | 40275
3 | 8:57.01 | 4:03.73 | 40276 | 58573
4 | 13:00.74 | 6:00.73 | 58574 | 85646
5 | 19:01.72 | 3:48.50 | 85647 | 102796
6 | 22:50.47 | 3:08.12 | 102797 | 116908
7 | 25:58.59 | 5:10.12 | 116909 | 140170
8 | 31:08.71 | 6:07.25 | 140171 | 167720


Характеристики диапазона извлечения и сообщения об ошибках

Выбранный диапазон

Имя файла F:\Лоси\Target - Master Project Genesis.wav

Пиковый уровень 97.7 %
Качество диапазона 100.0 %
CRC копии F62A7882
Копирование... OK

Ошибок не произошло


AccurateRip: сводка

Трек 1 точное извлечение (доверие 4) [5576F773]
Трек 2 точное извлечение (доверие 4) [EEFD8DA7]
Трек 3 точное извлечение (доверие 4) [4B4D7774]
Трек 4 точное извлечение (доверие 4) [FB926B0F]
Трек 5 точное извлечение (доверие 4) [F3A421EF]
Трек 6 точное извлечение (доверие 4) [B7B66103]
Трек 7 точное извлечение (доверие 4) [426A60FE]
Трек 8 точное извлечение (доверие 4) [42FEF877]

Все треки извлечены точно

Конец отчёта


Mission Executed+Demo 1986
Master Project Genesis
Scans


Top
 Profile  
 
 
PostPosted: 05 Mar 2010 
Прокъмитолист
User avatar
Joined: 12 Aug 2007
Posts: 6602
Lоcаtion: Санктъ-Петербуркъ
Age: 51
Name: Олекъ
обложки точно заберу. спасибо, Сергей! :thanx:

_________________
прокъметол - это музыко, от которово есть прок (ы)


Top
 Profile  
 
 
PostPosted: 05 Mar 2010 
Я набрал 1000 сообщений!
User avatar
Joined: 25 Dec 2008
Posts: 1545
Age: 44
Name: Павел
Спасибо,Серега! :true: :true: :true:


Top
 Profile  
 
 
PostPosted: 05 Mar 2010 
metallpaparazzy
User avatar
Joined: 20 Dec 2009
Posts: 674
Lоcаtion: Днепропетровск
Age: 44
Name: Геннадий
о, а вот и обложечки :dance:
:thanx:
эх, и я такой боксик хочу.... :oops:


Top
 Profile E-mail  
 
 
PostPosted: 05 Mar 2010 
труъ антисионист
User avatar
Joined: 01 Aug 2007
Posts: 4544
Lоcаtion: Откуда и большинство из нас
Age: 38
Name: Дядя Вова
Спасибо, побёг качать! :true:

_________________
Image
Image


Top
 Profile  
 
 
PostPosted: 05 Mar 2010 
Хиппей (support team)
User avatar
Joined: 30 Jul 2007
Posts: 114376
Lоcаtion: Киев (Kyiv, UA)
Age: 46
Name: Andrey
Серёга, спасибо! :true: Забираю всё :cry:

_________________


Top
 Profile E-mail  
 
 
PostPosted: 07 Mar 2010 
Труъ
User avatar
Joined: 15 Dec 2008
Posts: 131
Lоcаtion: Донбасс
Age: 46
Name: Евгений
Cпасибо за качественный рип! :true:


Top
 Profile  
 
 
PostPosted: 07 Mar 2010 
дядя Миша
User avatar
Joined: 17 Oct 2008
Posts: 3183
Lоcаtion: USSR
Age: 57
Name: Khy
где то я первопресс видел.......AAARRG 16


Top
 Profile  
 
Display posts from previous:  Sort by  
Post new topic Reply to topic  [ 8 posts ] 

All times are UTC + 3 hours


Who is online

Users browsing this forum: No registered users and 1 guest


You cannot post new topics in this forum
You cannot reply to topics in this forum
You cannot edit your posts in this forum
You cannot delete your posts in this forum
You cannot post attachments in this forum

Search for:
Яндекс.Метрика
Powered by phpBB © 2000, 2002, 2005, 2007 phpBB Group