\m/ 80's metal \m/

Информационно-аналитический форум "80 см пыли" (In Search We Trust) "У нас никто никуда не спешит"
Me For You - http://me-4u.com
It is currently 18 Sep 2019

All times are UTC + 3 hours

Spoiler
Chat - temporary registration for foreign users (please leave your application here)







Post new topic Reply to topic  [ 2 posts ] 
Author Message
 
PostPosted: 28 Feb 2010 
труъ антисионист
User avatar
Joined: 01 Aug 2007
Posts: 4544
Lоcаtion: Откуда и большинство из нас
Age: 38
Name: Дядя Вова
Image
Группа: Toxin
Альбом: Cloned
Год: 1995
Лейбл: Self Released
Стиль: Thrash Metal
Страна: GER
Формат: Flac / Log / Cue
Размер: 102 Mb

******************************************************************************

Line Up:

Frank Ungewickel - Guitars, Vocals
Stefan Kaufmann - Guitars
Andreas Wendel - Bass, Vocals
Michael Kramer - Drums, Vocals


Tracks:
1. Deface 02:55
2. The 7th Journey 04:43
3. Alternate Reality 04:12
4. Cloned 03:12
Total playing time 15:02


LOG
Exact Audio Copy V0.99 prebeta 4 from 23. January 2008

EAC extraction logfile from 27. December 2009, 13:50

TOXIN / Cloned

Used drive : PLEXTOR CD-R PREMIUM2 Adapter: 0 ID: 1

Read mode : Secure
Utilize accurate stream : Yes
Defeat audio cache : Yes
Make use of C2 pointers : No

Read offset correction : 30
Overread into Lead-In and Lead-Out : No
Fill up missing offset samples with silence : Yes
Delete leading and trailing silent blocks : No
Null samples used in CRC calculations : Yes
Used interface : Native Win32 interface for Win NT & 2000

Used output format : Internal WAV Routines
Sample format : 44.100 Hz; 16 Bit; Stereo


TOC of the extracted CD

Track | Start | Length | Start sector | End sector
---------------------------------------------------------
1 | 0:00.00 | 2:55.02 | 0 | 13126
2 | 2:55.02 | 4:43.28 | 13127 | 34379
3 | 7:38.30 | 4:12.72 | 34380 | 53351
4 | 11:51.27 | 3:12.28 | 53352 | 67779


Range status and errors

Selected range

Filename J:\EAC WORK\TOXIN - Cloned.wav

Peak level 100.0 %
Range quality 100.0 %
Copy CRC 7A50CA76
Copy OK

No errors occurred


AccurateRip summary

Track 1 not present in database
Track 2 not present in database
Track 3 not present in database
Track 4 not present in database

None of the tracks are present in the AccurateRip database

End of status report


===================================DOWNLOAD========================================


TOXIN [1995] [MCD] Cloned [EAC-FLAC] by Gnoppy [MeTaLMaDNeSS.TeaM].rar

_________________
Image
Image


Top
 Profile  
 
 
PostPosted: 28 Feb 2010 
Хиппей (support team)
User avatar
Joined: 30 Jul 2007
Posts: 114376
Lоcаtion: Киев (Kyiv, UA)
Age: 46
Name: Andrey
Thanx! :true:

_________________


Top
 Profile E-mail  
 
Display posts from previous:  Sort by  
Post new topic Reply to topic  [ 2 posts ] 

All times are UTC + 3 hours


Who is online

Users browsing this forum: No registered users and 1 guest


You cannot post new topics in this forum
You cannot reply to topics in this forum
You cannot edit your posts in this forum
You cannot delete your posts in this forum
You cannot post attachments in this forum

Search for:
Яндекс.Метрика
Powered by phpBB © 2000, 2002, 2005, 2007 phpBB Group