\m/ 80's metal \m/

Информационно-аналитический форум "80 см пыли" (In Search We Trust) "У нас никто никуда не спешит"
Me For You - http://me-4u.com
It is currently 23 Oct 2019

All times are UTC + 3 hours

Spoiler
Chat - temporary registration for foreign users (please leave your application here)







Post new topic Reply to topic  [ 17 posts ] 
Author Message
 
PostPosted: 10 Feb 2010 
Я набрал 1000 сообщений!
User avatar
Joined: 25 Dec 2008
Posts: 1545
Age: 44
Name: Павел
Tush - Waiting For The Storm
Genre:Heavy/Power metal
Country:Germany
Year:1992
Size:311 Mb
Format:APE+cue+covers


Image
Image

cue
PERFORMER "Tush"
TITLE "Waiting For The Storm"
FILE "CDImage.ape" WAVE
TRACK 01 AUDIO
TITLE "Hold On To Your Dreams"
PERFORMER "Tush"
INDEX 01 00:00:00
TRACK 02 AUDIO
TITLE "Waiting For The Storm"
PERFORMER "Tush"
INDEX 01 04:36:50
TRACK 03 AUDIO
TITLE "All The Way"
PERFORMER "Tush"
INDEX 01 10:35:05
TRACK 04 AUDIO
TITLE "Eve Of Sunrise"
PERFORMER "Tush"
INDEX 01 15:24:37
TRACK 05 AUDIO
TITLE "No More Tomorrow"
PERFORMER "Tush"
INDEX 01 21:58:00
TRACK 06 AUDIO
TITLE "The Valey (Intro)"
PERFORMER "Tush"
INDEX 01 27:27:00
TRACK 07 AUDIO
TITLE "Never Again"
PERFORMER "Tush"
INDEX 01 28:35:35
TRACK 08 AUDIO
TITLE "Lucifer`s Glory"
PERFORMER "Tush"
INDEX 01 34:35:00
TRACK 09 AUDIO
TITLE "Long Live Rock`n`Roll"
PERFORMER "Tush"
INDEX 01 42:08:00


Tracklist:
1.Hold On To Your Dreams
2.Waiting For The Storm
3.All The Way
4.Eve Of Sunrise
5.No More Tomorrow
6.The Valley (Intro)
7.Never Again
8.Lucifer's Glory
9.Long Live Rock 'N' Roll (Rainbow cover)

Классный альбом(хотя для 1992 года запоздавший).Группа играла мощный хэви с примесью пауэра.Жаль,всего один альбом.
К сожалению,лога нет-рип получен по обмену.

Tush - 1992 - Waiting For The Storm.rar


Top
 Profile  
 
 
PostPosted: 10 Feb 2010 
Хиппей (support team)
User avatar
Joined: 30 Jul 2007
Posts: 115023
Lоcаtion: Киев (Kyiv, UA)
Age: 46
Name: Andrey
Паша, спасибо! :thanx:

_________________


Top
 Profile E-mail  
 
 
PostPosted: 10 Feb 2010 
А может смените мне статус?..
Joined: 03 Jul 2009
Posts: 885
Lоcаtion: Serbia
Name: Laki
Thanks Pavel, Excellent !!!!


Top
 Profile E-mail  
 
 
PostPosted: 10 Feb 2010 
Я набрал 1000 сообщений!
Joined: 12 Dec 2008
Posts: 1066
Lоcаtion: BULGARIA
Age: 41
Name: DIMITЪR
Tnank you!!!!Great album!!!! :true:


Top
 Profile  
 
 
PostPosted: 10 Feb 2010 
Old Time Rock`n`Roll
User avatar
Joined: 23 Jun 2008
Posts: 3490
Warnings: 1
Lоcаtion: г.Ульяновск
Age: 41
Name: Константин
Cпасибо :dance:


Top
 Profile  
 
 
PostPosted: 10 Feb 2010 
спирт 100%
User avatar
Joined: 22 Sep 2008
Posts: 4477
Age: 48
Name: Саня
Павел, БОЛЬШОЕ СПАСИБО!!! :true: :true: :true:


Top
 Profile  
 
 
PostPosted: 11 Feb 2010 
Труъ
User avatar
Joined: 14 Jul 2009
Posts: 158
Lоcаtion: Hell Is Here
Age: 49
Name: Adriano
Thank You Very Much ! :true:


Top
 Profile E-mail  
 
 
PostPosted: 12 Feb 2010 
Прокъмитолист
User avatar
Joined: 12 Aug 2007
Posts: 6628
Lоcаtion: Санктъ-Петербуркъ
Age: 52
Name: Олекъ
спасибо, Паша! забираю :thanx:

_________________
прокъметол - это музыко, от которово есть прок (ы)


Top
 Profile  
 
 
PostPosted: 04 Aug 2011 
ТрэшЭрос
User avatar
Joined: 18 Jul 2011
Posts: 2305
Lоcаtion: Гулькевичи
Age: 44
Name: Александр
Други мои, Яндекс против Народа - не видит ссыль... Шо робить будемо? :dash:

_________________
Thrash no trash!!!


Top
 Profile E-mail  
 
 
PostPosted: 04 Aug 2011 
Хиппей (support team)
User avatar
Joined: 30 Jul 2007
Posts: 115023
Lоcаtion: Киев (Kyiv, UA)
Age: 46
Name: Andrey
1. Обращаемся к Гуглю.
2. Просим перезалить.

_________________


Top
 Profile E-mail  
 
 
PostPosted: 27 Aug 2011 
Пионэръ
Joined: 25 Aug 2011
Posts: 48
Lоcаtion: Worl
Name: Zoltan Tivesko
This is down, too. Any chance to reupload?


Top
 Profile E-mail  
 
 
PostPosted: 27 Aug 2011 
Хиппей (support team)
User avatar
Joined: 30 Jul 2007
Posts: 115023
Lоcаtion: Киев (Kyiv, UA)
Age: 46
Name: Andrey
Вечером перезалью....

_________________


Top
 Profile E-mail  
 
 
PostPosted: 27 Aug 2011 
Хиппей (support team)
User avatar
Joined: 30 Jul 2007
Posts: 115023
Lоcаtion: Киев (Kyiv, UA)
Age: 46
Name: Andrey
Tush - Waiting For The Storm [ape]

mirror: MultiUp l Narod

cue
PERFORMER "Tush"
TITLE "Waiting For The Storm"
FILE "CDImage.ape" WAVE
TRACK 01 AUDIO
TITLE "Hold On To Your Dreams"
PERFORMER "Tush"
INDEX 01 00:00:00
TRACK 02 AUDIO
TITLE "Waiting For The Storm"
PERFORMER "Tush"
INDEX 01 04:36:50
TRACK 03 AUDIO
TITLE "All The Way"
PERFORMER "Tush"
INDEX 01 10:35:05
TRACK 04 AUDIO
TITLE "Eve Of Sunrise"
PERFORMER "Tush"
INDEX 01 15:24:37
TRACK 05 AUDIO
TITLE "No More Tomorrow"
PERFORMER "Tush"
INDEX 01 21:58:00
TRACK 06 AUDIO
TITLE "The Valey (Intro)"
PERFORMER "Tush"
INDEX 01 27:27:00
TRACK 07 AUDIO
TITLE "Never Again"
PERFORMER "Tush"
INDEX 01 28:35:35
TRACK 08 AUDIO
TITLE "Lucifer`s Glory"
PERFORMER "Tush"
INDEX 01 34:35:00
TRACK 09 AUDIO
TITLE "Long Live Rock`n`Roll"
PERFORMER "Tush"
INDEX 01 42:08:00

_________________


Top
 Profile E-mail  
 
 
PostPosted: 28 Aug 2011 
ТрэшЭрос
User avatar
Joined: 18 Jul 2011
Posts: 2305
Lоcаtion: Гулькевичи
Age: 44
Name: Александр
большой :thanx:

_________________
Thrash no trash!!!


Top
 Profile E-mail  
 
 
PostPosted: 28 Aug 2011 
Хиппей (support team)
User avatar
Joined: 30 Jul 2007
Posts: 115023
Lоcаtion: Киев (Kyiv, UA)
Age: 46
Name: Andrey
:shok: Сколько?... :oops:

_________________


Top
 Profile E-mail  
 
 
PostPosted: 28 Aug 2011 
ТрэшЭрос
User avatar
Joined: 18 Jul 2011
Posts: 2305
Lоcаtion: Гулькевичи
Age: 44
Name: Александр
:crazy:

_________________
Thrash no trash!!!


Top
 Profile E-mail  
 
 
PostPosted: 29 Aug 2011 
Персональный статус
Joined: 19 Jul 2010
Posts: 282
Lоcаtion: Москва
Name: Вадим
Вот этот альбом очень понравился. Блольшое спасибо!


Top
 Profile E-mail  
 
Display posts from previous:  Sort by  
Post new topic Reply to topic  [ 17 posts ] 

All times are UTC + 3 hours


Who is online

Users browsing this forum: No registered users and 1 guest


You cannot post new topics in this forum
You cannot reply to topics in this forum
You cannot edit your posts in this forum
You cannot delete your posts in this forum
You cannot post attachments in this forum

Search for:
Яндекс.Метрика
Powered by phpBB © 2000, 2002, 2005, 2007 phpBB Group