\m/ 80's metal \m/

Информационно-аналитический форум "80 см пыли" (In Search We Trust) "У нас никто никуда не спешит"
Me For You - http://me-4u.com
It is currently 18 Jul 2019

All times are UTC + 3 hours

Spoiler
Chat - temporary registration for foreign users (please leave your application here)







Post new topic Reply to topic  [ 10 posts ] 
Author Message
 
PostPosted: 25 Jan 2010 
Old Time Rock`n`Roll
User avatar
Joined: 23 Jun 2008
Posts: 3461
Lоcаtion: г.Ульяновск
Age: 40
Name: Константин
TKO – In Your Face (1984) + Up Your Ass (1981-Live) / 2001

Image

Year: 1984 + 1981 (Live)
Style: Traditional Heavy Metal
Country: USA
Format: APE + log + cue+scans & mp3-320
Size: 423 Mb + 438 Mb /147 Mb+ 169 Mb

Tracklist
Disc 1
1. Working Girl 02:53
2. Give Into the Night 03:25
3. So This is Rock n’ Roll? 03:25
4. End of the Line 03:17
5. All I Wanna Do 04:32
6. Run Outta Town 03:44
7. Without You 04:02
8. Danger City 04:20
9. Kingdome Come 04:13
10. End of the Line (demo) 04:31
11. Bad Brad’s Blues (live) 04:04
12. All I Wanna Do (live) 21:10

TPT – 1:03:41

Disc 2
1.Give Into the Night 03:52
2.So This is Rock n’ Roll? 03:51
3.Run Outta Town 03:43
4.All I Wanna Do 05:25
5.Jumpin’ Jack Flash 07:08
6.Born To Be Wild 05:51
7.Wild in the Streets 03:17
8.I Just Got Back From Texas 04:54
9.Working Girl 03:13
10.Danger City 04:19
11.Ain’t No Way To Be 04:53
12.Kingdome Come 04:15
13.Guitar Solo From Hell 02:59
14.End of the Line 07:25
15-16.Rock and Roll / Celebration Day 07:50

TPT – 1:13:04

Line-Up
Brad Sinsel - Vocals
Ken Mary - Drums
Kjartan Kristoffersen - Guitar
Scott Earl – Bass

Album Credits:
Produced: Rick Asher Keefer
Remixed: Rick Asher Keefer
Mastered: Jose Rodriguez
Remastered: Jamie King

Additional Credits:
Lynn Debon: Photos
Donald J. Munz: Album Design

Log-84
EAC extraction logfile from 10. November 2007, 9:53 for CD
TKO / In Your Face and Up Your Ass (cd 1)

Used drive : PLEXTOR CD-R PX-230A Adapter: 1 ID: 1
Read mode : Secure with NO C2, accurate stream, disable cache
Read offset correction : 738
Overread into Lead-In and Lead-Out : No

Used output format : C:\Programmi\Exact Audio Copy\MAC.EXE (Monkey's Audio Lossless Encoder)
High Lossless Compression

Other options :
Fill up missing offset samples with silence : Yes
Delete leading and trailing silent blocks : No
Native Win32 interface for Win NT & 2000


Range status and errors
Selected range
Filename F:\TKO - In Your Face and Up Your Ass (cd 1)\TKO - In Your Face and Up Your Ass (cd 1).wav.wav

Peak level 94.4 %
Range quality 100.0 %
CRC 13C05FCF
Copy OK

No errors occured

End of status report


Log-81
EAC extraction logfile from 10. November 2007, 10:12 for CD
TKO / In Your Face And Up Your Ass CD2

Used drive : PLEXTOR CD-R PX-230A Adapter: 1 ID: 1
Read mode : Secure with NO C2, accurate stream, disable cache
Read offset correction : 738
Overread into Lead-In and Lead-Out : No

Used output format : C:\Programmi\Exact Audio Copy\MAC.EXE (Monkey's Audio Lossless Encoder)
High Lossless Compression

Other options :
Fill up missing offset samples with silence : Yes
Delete leading and trailing silent blocks : No
Native Win32 interface for Win NT & 2000


Range status and errors
Selected range
Filename F:\TKO - In Your Face and Up Your Ass (cd 1)\TKO - In Your Face And Up Your Ass CD2.wav.wav

Peak level 100.0 %
Range quality 100.0 %
CRC 8C09A62F
Copy OK

No errors occured

End of status report


Cue-84
REM GENRE "Heavy Metal"
REM DATE 2000
REM DISCID 9B0EEC0C
REM COMMENT "ExactAudioCopy v0.95b4"
PERFORMER "TKO"
TITLE "In Your Face and Up Your Ass (cd 1)"
FILE "TKO - In Your Face and Up Your Ass (cd 1).wav" WAVE
TRACK 01 AUDIO
TITLE "Track01"
PERFORMER "TKO"
INDEX 01 00:00:00
TRACK 02 AUDIO
TITLE "Track02"
PERFORMER "TKO"
INDEX 01 02:53:38
TRACK 03 AUDIO
TITLE "Track03"
PERFORMER "TKO"
INDEX 01 06:18:55
TRACK 04 AUDIO
TITLE "Track04"
PERFORMER "TKO"
INDEX 01 09:43:60
TRACK 05 AUDIO
TITLE "Track05"
PERFORMER "TKO"
INDEX 01 13:01:00
TRACK 06 AUDIO
TITLE "Track06"
PERFORMER "TKO"
INDEX 01 17:33:21
TRACK 07 AUDIO
TITLE "Track07"
PERFORMER "TKO"
INDEX 01 21:17:40
TRACK 08 AUDIO
TITLE "Track08"
PERFORMER "TKO"
INDEX 01 25:19:48
TRACK 09 AUDIO
TITLE "Track09"
PERFORMER "TKO"
INDEX 01 29:40:14
TRACK 10 AUDIO
TITLE "Track10"
PERFORMER "TKO"
INDEX 01 33:54:06
TRACK 11 AUDIO
TITLE "Track11"
PERFORMER "TKO"
INDEX 01 38:25:38
TRACK 12 AUDIO
TITLE "Track12"
PERFORMER "TKO"
INDEX 01 42:29:50


Cue-81
REM GENRE "Heavy Metal"
REM DATE 2000
REM DISCID F5111E10
REM COMMENT "ExactAudioCopy v0.95b4"
PERFORMER "TKO"
TITLE "In Your Face And Up Your Ass CD2"
FILE "TKO - In Your Face And Up Your Ass CD2.wav" WAVE
TRACK 01 AUDIO
TITLE "Give Into The Night"
PERFORMER "TKO"
INDEX 01 00:00:00
TRACK 02 AUDIO
TITLE "So This Is Rock & Roll"
PERFORMER "TKO"
INDEX 01 03:52:10
TRACK 03 AUDIO
TITLE "Run Outta Town"
PERFORMER "TKO"
INDEX 01 07:43:69
TRACK 04 AUDIO
TITLE "All I Wanna Do"
PERFORMER "TKO"
INDEX 01 11:27:37
TRACK 05 AUDIO
TITLE "Jumpin Jack Flash"
PERFORMER "TKO"
INDEX 01 16:53:29
TRACK 06 AUDIO
TITLE "Born To Be Wild"
PERFORMER "TKO"
INDEX 01 24:01:65
TRACK 07 AUDIO
TITLE "Wild In The Streets"
PERFORMER "TKO"
INDEX 01 29:53:33
TRACK 08 AUDIO
TITLE "I Just Got Back From Texas"
PERFORMER "TKO"
INDEX 01 33:11:02
TRACK 09 AUDIO
TITLE "Working Girl"
PERFORMER "TKO"
INDEX 01 38:05:33
TRACK 10 AUDIO
TITLE "Danger City"
PERFORMER "TKO"
INDEX 01 41:19:32
TRACK 11 AUDIO
TITLE "Ain't No Way To Be"
PERFORMER "TKO"
INDEX 01 45:38:60
TRACK 12 AUDIO
TITLE "Kingdom Come"
PERFORMER "TKO"
INDEX 01 50:32:22
TRACK 13 AUDIO
TITLE "Guitar Solo From Hell"
PERFORMER "TKO"
INDEX 01 54:47:25
TRACK 14 AUDIO
TITLE "End Of The Line"
PERFORMER "TKO"
INDEX 01 57:47:18
TRACK 15 AUDIO
TITLE "Rock And Roll"
PERFORMER "TKO"
INDEX 01 65:12:69
TRACK 16 AUDIO
TITLE "Celebration Day"
PERFORMER "TKO"
INDEX 01 69:13:34


1984 - APE
megaupload-APE

1981 (Live) - APE
megaupload-APE

1984 -320
megaupload-320

1981 (Live) -320
narod-320


Релиз с MMT, автор рипа - rockberto
Переиздание от 2001 г. студийного альбома 1984 г. совместно с концертной записью 1981 г., состав и порядок треков несколько отличается от оригинального варианта.
Несмотря на то, что сиэтлская рок-сцена прочно вошла с историю музыки с гранджевыми коллективами начала 90-х, поклонники классического хард-рока знают Сиэтл 80-х по многочисленныи командам, в которых были замешаны музыканты TKO (Culprit – Nightshade - Q5 – Bang Gang – War Babies)

Image


Last edited by oldrocker on 22 May 2011, edited 3 times in total.

Top
 Profile  
 
 
PostPosted: 26 Jan 2010 
Почётный металлург
User avatar
Joined: 15 Sep 2007
Posts: 4358
Lоcаtion: Хабаровск
Age: 59
Name: чуть выше
:thanx:

_________________
Коль будешь людей ты ослами честить,
тебе человеком меж них не прослыть!
(Саади, персидский поэт, 13в.)


Top
 Profile  
 
 
PostPosted: 26 Jan 2010 
труъ антисионист
User avatar
Joined: 01 Aug 2007
Posts: 4544
Lоcаtion: Откуда и большинство из нас
Age: 38
Name: Дядя Вова
Походу хорошая группа, спасибо! :true:
[youtube]<object width="425" height="344"><param name="movie" value="http://www.youtube.com/v/sRwOdQAnFzo&hl=ru_RU&fs=1&color1=0x234900&color2=0x4e9e00"></param><param name="allowFullScreen" value="true"></param><param name="allowscriptaccess" value="always"></param><embed src="http://www.youtube.com/v/sRwOdQAnFzo&hl=ru_RU&fs=1&color1=0x234900&color2=0x4e9e00" type="application/x-shockwave-flash" allowscriptaccess="always" allowfullscreen="true" width="425" height="344"></embed></object>[/youtube]

_________________
Image
Image


Top
 Profile  
 
 
PostPosted: 27 Jan 2010 
Персональный статус
User avatar
Joined: 10 Jun 2009
Posts: 384
Name: jose gomes
thanks ! :thanx:


Top
 Profile E-mail  
 
 
PostPosted: 27 Jan 2010 
Труъ
User avatar
Joined: 14 Jul 2009
Posts: 158
Lоcаtion: Hell Is Here
Age: 49
Name: Adriano
Many Thanx ! :thanx:


Top
 Profile E-mail  
 
 
PostPosted: 22 May 2011 
Зарегился вот...
Joined: 18 May 2011
Posts: 3
Lоcаtion: Россия, Москва
Name: Андрей
Сорри, опаздал на вечеринку.... Нельзя ли обновить ссылку на альбом 1984 года в лосслесс?


Top
 Profile E-mail  
 
 
PostPosted: 22 May 2011 
Old Time Rock`n`Roll
User avatar
Joined: 23 Jun 2008
Posts: 3461
Lоcаtion: г.Ульяновск
Age: 40
Name: Константин
Ссылку обновил, так что вечеринка продолжается! Всем по будвайзеру за счет администрации! :dance:


Top
 Profile  
 
 
PostPosted: 23 May 2011 
Хиппей (support team)
User avatar
Joined: 30 Jul 2007
Posts: 113537
Lоcаtion: Киев (Kyiv, UA)
Age: 46
Name: Andrey
Занятное дело, у меня эта тема еще и не была прочитана :oops:
Не знаю, кто такая администрация, но выпить за альбом(ы) нуна :drink:

Attachment:
girls-2-Joanna-Krupa-Budweiser-Friends-446.jpg
girls-2-Joanna-Krupa-Budweiser-Friends-446.jpg [ 468.77 KiB | Viewed 115 times ]

_________________


Top
 Profile E-mail  
 
 
PostPosted: 23 May 2011 
Old Time Rock`n`Roll
User avatar
Joined: 23 Jun 2008
Posts: 3461
Lоcаtion: г.Ульяновск
Age: 40
Name: Константин
Ну, и за прекрасных дам тоже стаканчик :drink:
Эх, жаль, что телефончик не оставили,особенно та, что в середине ((


Top
 Profile  
 
 
PostPosted: 24 May 2011 
Хиппей (support team)
User avatar
Joined: 30 Jul 2007
Posts: 113537
Lоcаtion: Киев (Kyiv, UA)
Age: 46
Name: Andrey
Дык, телефончиков валом. Это ж Крупа :oldman: :razz:

Image

_________________


Top
 Profile E-mail  
 
Display posts from previous:  Sort by  
Post new topic Reply to topic  [ 10 posts ] 

All times are UTC + 3 hours


Who is online

Users browsing this forum: No registered users and 1 guest


You cannot post new topics in this forum
You cannot reply to topics in this forum
You cannot edit your posts in this forum
You cannot delete your posts in this forum
You cannot post attachments in this forum

Search for:
Яндекс.Метрика
Powered by phpBB © 2000, 2002, 2005, 2007 phpBB Group