\m/ 80's metal \m/

Информационно-аналитический форум "80 см пыли" (In Search We Trust) "У нас никто никуда не спешит"
Me For You - http://me-4u.com
It is currently 20 Oct 2019

All times are UTC + 3 hours

Spoiler
Chat - temporary registration for foreign users (please leave your application here)







Post new topic Reply to topic  [ 10 posts ] 
Author Message
 
PostPosted: 10 Dec 2009 
Персональный статус
Joined: 06 Oct 2007
Posts: 339
THOR - Only The Strong

Image

Year - 1985
Country - Canada
Genre - Heavy Metal
Format - Lossless (Ape + Cue + Log)
Size - 88 Mb + 88 Mb + 88 Mb + 54 Mb

Thor - Lead Vocals
Pantera - Vocals
Mike Favata - Drums
Keith Zazzi - Bass, Vocals
Steve Price - Guitar

Tracklist

1. 2045 - 0:52
2. Only The Strong - 3:06
3. Start Raising Hell - 3:50
4. Knock 'Em Down - 4:12
5. Let The Blood Run Red - 4:28
6. When Gods Collide - 4:38
7. Rock The City - 4:10
8. Now Comes The Storm - 2:57
9. Thunder On The Tundra - 3:28
10. Hot Flames - 3:10
11. Ride Of The Chariots - 3:39

"Log"
Exact Audio Copy V0.99 prebeta 4 from 23. January 2008

Отчёт EAC об извлечении, выполненном 3. апреля 2009, 15:05

THOR / Only The Strong

Дисковод: ASUS DRW-2014S1T Adapter: 1 ID: 0

Режим чтения : Достоверность
Использование точного потока : Да
Отключение кэша аудио : Да
Использование указателей C2 : Нет

Коррекция смещения при чтении : 6
Способность читать области Lead-in и Lead-out : Нет
Заполнение пропущенных сэмплов тишиной : Да
Удаление блоков с тишиной в начале и конце : Нет
При вычислениях CRC использовались нулевые сэмплы : Да
Интерфейс : Установленный внешний ASPI-интерфейс

Выходной формат : Внутренние WAV-операции
Формат сэмплов : 44.100 Гц; 16 бит; стерео


TOC извлечённого CD

Трек | Старт | Длительность | Начальный сектор | Конечный сектор
---------------------------------------------------------------------
1 | 0:00.00 | 0:52.19 | 0 | 3918
2 | 0:52.19 | 3:06.35 | 3919 | 17903
3 | 3:58.54 | 3:50.32 | 17904 | 35185
4 | 7:49.11 | 4:12.38 | 35186 | 54123
5 | 12:01.49 | 4:28.57 | 54124 | 74280
6 | 16:30.31 | 4:38.30 | 74281 | 95160
7 | 21:08.61 | 4:10.17 | 95161 | 113927
8 | 25:19.03 | 2:56.74 | 113928 | 127201
9 | 28:16.02 | 3:28.26 | 127202 | 142827
10 | 31:44.28 | 3:10.52 | 142828 | 157129
11 | 34:55.05 | 3:39.47 | 157130 | 173601
12 | 38:34.52 | 4:00.62 | 173602 | 191663
13 | 42:35.39 | 5:01.67 | 191664 | 214305


Характеристики диапазона извлечения и сообщения об ошибках

Выбранный диапазон

Имя файла D:\Temp\THOR_1985_Only The Strong.wav

Пиковый уровень 100.0 %
Качество диапазона 100.0 %
CRC копии A74AFA04
Копирование... OK

Ошибок не произошло

Конец отчёта


ifolder - сканы в комплекте
Part 1
Part 2
Part 3
Part 4


Top
 Profile  
 
 
PostPosted: 10 Dec 2009 
хард н хэвщик (support team)
User avatar
Joined: 02 Jun 2008
Posts: 16881
Lоcаtion: Н.Новгород
Age: 32
Name: Артем
бутлежка?


Top
 Profile  
 
 
PostPosted: 11 Dec 2009 
Почётный металлург
User avatar
Joined: 15 Sep 2007
Posts: 4358
Lоcаtion: Хабаровск
Age: 59
Name: чуть выше
:thanx:

_________________
Коль будешь людей ты ослами честить,
тебе человеком меж них не прослыть!
(Саади, персидский поэт, 13в.)


Top
 Profile  
 
 
PostPosted: 11 Dec 2009 
5-speed satisfactor
User avatar
Joined: 16 Feb 2009
Posts: 3774
Lоcаtion: New York, USA
Age: 41
Name: Leonid
Во блин. Лет 5-6 а то и 7 назад они выступали в маленьком кинотеатре в Бостоне. Народу было человек 20-30, не более. Я так и не разобрался. Надо скачать и послушать. Спасибо.

_________________
Death rules! Metal to all who oppose!


Top
 Profile  
 
 
PostPosted: 23 Dec 2009 
хард н хэвщик (support team)
User avatar
Joined: 02 Jun 2008
Posts: 16881
Lоcаtion: Н.Новгород
Age: 32
Name: Артем
чего-то я покрутился на ебае, но так и не смог ни в одном аукционе посмотреть - а чье же издание -то , блин ? :dash:


Top
 Profile  
 
 
PostPosted: 24 Dec 2009 
Персональный статус
Joined: 06 Oct 2007
Posts: 339
UNISOUND RECORDS


Top
 Profile  
 
 
PostPosted: 24 Dec 2009 
хард н хэвщик (support team)
User avatar
Joined: 02 Jun 2008
Posts: 16881
Lоcаtion: Н.Новгород
Age: 32
Name: Артем
Unisound Records
84 Acadimias Ave
10678 Athens
Greece

понял, греки у нас расторопливые :) бутлежка значит


Top
 Profile  
 
 
PostPosted: 24 Dec 2009 
Анатолий
User avatar
Joined: 18 Oct 2008
Posts: 3573
Lоcаtion: Армавир
Age: 42
Name: Анатолий
В трек-листе должно быть ещё два трека:

12. Invader (4:00)
13. Unchained (5:01)

Есть?


Top
 Profile E-mail  
 
 
PostPosted: 24 Dec 2009 
Персональный статус
Joined: 06 Oct 2007
Posts: 339
Privateer wrote:
В трек-листе должно быть ещё два трека:

12. Invader (4:00)
13. Unchained (5:01)

Есть?



Да есть, забыл прописать.


Top
 Profile  
 
 
PostPosted: 27 Dec 2009 
дядя Миша
User avatar
Joined: 17 Oct 2008
Posts: 3190
Lоcаtion: USSR
Age: 57
Name: Khy
Это не бутлег......


Top
 Profile  
 
Display posts from previous:  Sort by  
Post new topic Reply to topic  [ 10 posts ] 

All times are UTC + 3 hours


Who is online

Users browsing this forum: No registered users and 1 guest


You cannot post new topics in this forum
You cannot reply to topics in this forum
You cannot edit your posts in this forum
You cannot delete your posts in this forum
You cannot post attachments in this forum

Search for:
Яндекс.Метрика
Powered by phpBB © 2000, 2002, 2005, 2007 phpBB Group