\m/ 80's metal \m/

Информационно-аналитический форум "80 см пыли" (In Search We Trust) "У нас никто никуда не спешит"
Me For You - http://me-4u.com
It is currently 18 Sep 2019

All times are UTC + 3 hours

Spoiler
Chat - temporary registration for foreign users (please leave your application here)







Post new topic Reply to topic  [ 6 posts ] 
Author Message
 
PostPosted: 05 Dec 2009 
Генеральный thrasher
User avatar
Joined: 03 Oct 2008
Posts: 3730
Lоcаtion: Ханты-Мансийский АО
Age: 44
Name: Сергей
Image

Year: 1987 (2001 Re-Issue)
Style: Thrash Metal
Country: Poland
Audio: ape (tracks)+cue+log
Size: 306 Mb
Label: Metal Mind

Line-Up:
Grzegorz Kupczyk - lead vocal, keyboards
Wojciech Hoffmann - lead guitar, backing vocals
Andrzej Јysуw - lead guitar, backing vocals
Bogusz Rutkiewicz - bass guitar
Tomasz Goehs - drums, timpani, backing vocals

Tracklist:
1. Ostatni Wojownik 06:42
2. Miecz Beruda 07:07
3. Kon Trojanski 06:55
4. Seans Z Wampirem 06:28
5. Syn Burzy 04:30
6. Bogini Chaosu 05:32
7. Anioі Zіa 03:47

Cue
REM GENRE Metal
REM DATE 1987
REM DISCID 4D09AC07
REM COMMENT "ExactAudioCopy v0.99pb5"
PERFORMER "Turbo"
TITLE "Ostatni Wojownik"
FILE "01 Ostatni Wojownik (The Last Warrior).ape" WAVE
TRACK 01 AUDIO
TITLE "Ostatni wojownik"
PERFORMER "Turbo"
INDEX 01 00:00:00
FILE "02 Miecz Beruda (Berud's Sword).ape" WAVE
TRACK 02 AUDIO
TITLE "Miecz Beruda"
PERFORMER "Turbo"
INDEX 01 00:00:00
FILE "03 Kon Trojanski (The Troian Horse).ape" WAVE
TRACK 03 AUDIO
TITLE "Kon trojanski"
PERFORMER "Turbo"
INDEX 01 00:00:00
FILE "04 Seans z Wampirem (Seance With A Vampire).ape" WAVE
TRACK 04 AUDIO
TITLE "Seans z wampirem"
PERFORMER "Turbo"
INDEX 01 00:00:00
FILE "05 Syn Burzy (Son Of The Storm).ape" WAVE
TRACK 05 AUDIO
TITLE "Syn burzy"
PERFORMER "Turbo"
INDEX 01 00:00:00
FILE "06 Bogini Chaosu (The Chaos Goddess).ape" WAVE
TRACK 06 AUDIO
TITLE "Bogini chaosu"
PERFORMER "Turbo"
INDEX 01 00:00:00
FILE "07 Aniol Zla (Angel Of Evil).ape" WAVE
TRACK 07 AUDIO
TITLE "Aniol zla"
PERFORMER "Turbo"
INDEX 01 00:00:00


Log
EAC extraction logfile from 25. October 2003, 18:04 for CD
Unknown Artist / Unknown Title

Used drive : TEAC CD-W552E Adapter: 0 ID: 0
Read mode : Secure with C2, accurate stream, disable cache
Combined read/write offset correction : 0
Overread into Lead-In and Lead-Out : No

Used output format : Internal WAV Routines
44.100 Hz; 16 Bit; Stereo

Other options :
Fill up missing offset samples with silence : Yes
Delete leading and trailing silent blocks : No
Installed external ASPI interface


Track 1
Filename H:\cd\01 Track01.wav

Peak level 98.5 %
Track quality 100.0 %
Copy CRC B3B8606D
Copy OK

Track 2
Filename H:\cd\02 Track02.wav

Peak level 91.6 %
Track quality 100.0 %
Copy CRC 2DC7D212
Copy OK

Track 3
Filename H:\cd\03 Track03.wav

Peak level 94.8 %
Track quality 99.9 %
Copy CRC CA3CCDA0
Copy OK

Track 4
Filename H:\cd\04 Track04.wav

Peak level 95.2 %
Track quality 99.9 %
Copy CRC 8FDA14A1
Copy OK

Track 5
Filename H:\cd\05 Track05.wav

Peak level 97.9 %
Track quality 100.0 %
Copy CRC FFE402DD
Copy OK

Track 6
Filename H:\cd\06 Track06.wav

Peak level 98.4 %
Track quality 100.0 %
Copy CRC 94F90044
Copy OK

Track 7
Filename H:\cd\07 Track07.wav

Peak level 95.6 %
Track quality 100.0 %
Copy CRC 821D3904
Copy OK

No errors occured


End of status report


Megaupload


Top
 Profile  
 
 
PostPosted: 05 Dec 2009 
Хиппей (support team)
User avatar
Joined: 30 Jul 2007
Posts: 114376
Lоcаtion: Киев (Kyiv, UA)
Age: 46
Name: Andrey
:thanx:

_________________


Top
 Profile E-mail  
 
 
PostPosted: 05 Dec 2009 
Работнечег
User avatar
Joined: 28 Aug 2007
Posts: 5993
Lоcаtion: г. Москва
Age: 30
Name: Дима
Спасибо! :dance:


Top
 Profile E-mail  
 
 
PostPosted: 27 Dec 2009 
Power Metal Maniac
User avatar
Joined: 09 Aug 2008
Posts: 6858
Lоcаtion: Москва
Age: 41
Name: Егор
скачано 27.10.2011 ) :thanx:

_________________
Long Live Metal!


Last edited by EG Power on 27 Oct 2011, edited 1 time in total.

Top
 Profile  
 
 
PostPosted: 03 Aug 2011 
ТрэшЭрос
User avatar
Joined: 18 Jul 2011
Posts: 2304
Lоcаtion: Гулькевичи
Age: 44
Name: Александр
:thanx: , надеюсь не разочароваЦЦо... :true:

_________________
Thrash no trash!!!


Top
 Profile E-mail  
 
 
PostPosted: 03 Aug 2011 
Доктор энтомологии
User avatar
Joined: 22 Jan 2009
Posts: 9880
Lоcаtion: Даугавпилс
Age: 44
Name: Алексей
Классико! Как тут разочароваться :true:


Top
 Profile  
 
Display posts from previous:  Sort by  
Post new topic Reply to topic  [ 6 posts ] 

All times are UTC + 3 hours


Who is online

Users browsing this forum: No registered users and 2 guests


You cannot post new topics in this forum
You cannot reply to topics in this forum
You cannot edit your posts in this forum
You cannot delete your posts in this forum
You cannot post attachments in this forum

Search for:
Яндекс.Метрика
Powered by phpBB © 2000, 2002, 2005, 2007 phpBB Group