\m/ 80's metal \m/

Информационно-аналитический форум "80 см пыли" (In Search We Trust) "У нас никто никуда не спешит"
Me For You - http://me-4u.com
It is currently 21 Sep 2019

All times are UTC + 3 hours

Spoiler
Chat - temporary registration for foreign users (please leave your application here)







Post new topic Reply to topic  [ 4 posts ] 
Author Message
 
PostPosted: 23 Nov 2009 
Old Time Rock`n`Roll
User avatar
Joined: 23 Jun 2008
Posts: 3477
Lоcаtion: г.Ульяновск
Age: 41
Name: Константин
The Dogs D`Amour – In The Dynamite Jet Saloon (1988)

Image

Year: 1988
Style: Hard Rock, Glam/Sleaze
Country: UK
Format: FLAC + log + cue + scans
Size: 296 Mb

Tracklist
01. Debauchery (2:57)
02. I Don't Want You To Go (3:50)
03. How Come It Never Rains (4:47)
04. Last Bandit (3:39)
05. Medicine Man (4:29)
06. Gonna Get It Right (3:38)
07. Everything I Want (3:59)
08. Heartbreak (3:18)
09. Billy Two Rivers (3:18)
10. Wait Until I'm Dead (4:13)
11. Sometimes (4:22)
12. The Kid From Kensington (3:48)
13. The State I'm In (3:40)

TPT – 50:03

Line-Up
Bam - Drums
Jo Dog - Guitars
Steve James - Bass, Harmonica, Sax, Acoustic Guitar
Tyla - Vocals, Guitars

Album Credits:
Produced: Mark Dearnley/The Dogs D'Amour
Produced: Dougie Bennett # 4, 7, 11, 12, 13

Chart Position:
UK # 97

Charting Singles:
How Come It Never Rains UK # 44
I Don't Want You To Go UK # 78
The Kid From Kensington UK # 88

Additional Players:
Tim Hinkley - Piano

Spectres
Image

Cue
REM GENRE Rock
REM DATE 1988
REM DISCID C40BBB0D
REM COMMENT "ExactAudioCopy v0.99pb4"
PERFORMER "The Dogs D'Amour"
TITLE "In The Dynamite Jet Saloon"
FILE "The Dogs D'Amour - In The Dynamite Jet Saloon.flac" WAVE
TRACK 01 AUDIO
TITLE "Debauchery"
PERFORMER "The Dogs D'Amour"
INDEX 00 00:00:00
INDEX 01 00:00:32
TRACK 02 AUDIO
TITLE "I Don't Want You To Go"
PERFORMER "The Dogs D'Amour"
INDEX 01 02:57:37
TRACK 03 AUDIO
TITLE "How Come It Never Rains"
PERFORMER "The Dogs D'Amour"
INDEX 00 06:46:11
INDEX 01 06:47:65
TRACK 04 AUDIO
TITLE "Last Bandit"
PERFORMER "The Dogs D'Amour"
INDEX 00 11:33:54
INDEX 01 11:35:25
TRACK 05 AUDIO
TITLE "Medicine Man"
PERFORMER "The Dogs D'Amour"
INDEX 00 15:15:19
INDEX 01 15:15:27
TRACK 06 AUDIO
TITLE "Gonna Get It Right"
PERFORMER "The Dogs D'Amour"
INDEX 00 19:41:57
INDEX 01 19:44:07
TRACK 07 AUDIO
TITLE "Everything I Want"
PERFORMER "The Dogs D'Amour"
INDEX 00 23:23:04
INDEX 01 23:23:22
TRACK 08 AUDIO
TITLE "Heartbreak"
PERFORMER "The Dogs D'Amour"
INDEX 00 27:21:50
INDEX 01 27:22:35
TRACK 09 AUDIO
TITLE "Billy Two Rivers"
PERFORMER "The Dogs D'Amour"
INDEX 00 30:39:58
INDEX 01 30:41:00
TRACK 10 AUDIO
TITLE "Wait Until I'm Dead"
PERFORMER "The Dogs D'Amour"
INDEX 00 33:58:53
INDEX 01 33:59:70
TRACK 11 AUDIO
TITLE "Sometimes"
PERFORMER "The Dogs D'Amour"
INDEX 00 38:11:45
INDEX 01 38:13:52
TRACK 12 AUDIO
TITLE "The Kid From Kensington"
PERFORMER "The Dogs D'Amour"
INDEX 00 42:33:67
INDEX 01 42:36:10
TRACK 13 AUDIO
TITLE "The State I'm In"
PERFORMER "The Dogs D'Amour"
INDEX 00 46:22:57
INDEX 01 46:24:32


Log
Exact Audio Copy V0.99 prebeta 4 from 23. January 2008

EAC extraction logfile from 18. March 2009, 12:52

The Dogs D'Amour / In The Dynamite Jet Saloon

Used drive : MATSHITABD-MLT UJ-210S Adapter: 2 ID: 0

Read mode : Secure
Utilize accurate stream : Yes
Defeat audio cache : Yes
Make use of C2 pointers : No

Read offset correction : 102
Overread into Lead-In and Lead-Out : No
Fill up missing offset samples with silence : Yes
Delete leading and trailing silent blocks : No
Null samples used in CRC calculations : No
Used interface : Installed external ASPI interface

Used output format : User Defined Encoder
Selected bitrate : 768 kBit/s
Quality : High
Add ID3 tag : No
Command line compressor : C:\Program Files\Exact Audio Copy\FLAC\FLAC.EXE
Additional command line options : -6 -V -T "ARTIST=%a" -T "TITLE=%t" -T "ALBUM=%g" -T "DATE=%y" -T "TRACKNUMBER=%n" -T "GENRE=%m" -T "COMMENT=%e" %s -o %d


TOC of the extracted CD

Track | Start | Length | Start sector | End sector
---------------------------------------------------------
1 | 0:00.32 | 2:57.05 | 32 | 13311
2 | 2:57.37 | 3:50.28 | 13312 | 30589
3 | 6:47.65 | 4:47.35 | 30590 | 52149
4 | 11:35.25 | 3:40.02 | 52150 | 68651
5 | 15:15.27 | 4:28.55 | 68652 | 88806
6 | 19:44.07 | 3:39.15 | 88807 | 105246
7 | 23:23.22 | 3:59.13 | 105247 | 123184
8 | 27:22.35 | 3:18.40 | 123185 | 138074
9 | 30:41.00 | 3:18.70 | 138075 | 152994
10 | 33:59.70 | 4:13.57 | 152995 | 172026
11 | 38:13.52 | 4:22.33 | 172027 | 191709
12 | 42:36.10 | 3:48.22 | 191710 | 208831
13 | 46:24.32 | 3:38.73 | 208832 | 225254


Range status and errors

Selected range

Filename C:\EAC\Dogs D'Amour, The (1988) - In The Dynamite Jet Saloon\The Dogs D'Amour - In The Dynamite Jet Saloon.wav

Peak level 90.0 %
Range quality 100.0 %
Test CRC 3E78E592
Copy CRC 3E78E592
Copy OK

No errors occurred


AccurateRip summary

Track 1 accurately ripped (confidence 2) [2E1ED9D0]
Track 2 accurately ripped (confidence 2) [A2071CAF]
Track 3 accurately ripped (confidence 2) [8160E3DD]
Track 4 accurately ripped (confidence 2) [A2DCE966]
Track 5 cannot be verified as accurate (confidence 2) [9F26E5B4], AccurateRip returned [4C6C2E8B]
Track 6 accurately ripped (confidence 2) [06727711]
Track 7 accurately ripped (confidence 2) [72384A21]
Track 8 accurately ripped (confidence 2) [0EBC565F]
Track 9 accurately ripped (confidence 2) [B5051BAF]
Track 10 accurately ripped (confidence 2) [5CC4F931]
Track 11 accurately ripped (confidence 2) [246DC36F]
Track 12 accurately ripped (confidence 2) [A9AFC855]
Track 13 cannot be verified as accurate (confidence 2) [4BF1A1A5], AccurateRip returned [E4C99702]

11 track(s) accurately ripped
2 track(s) could not be verified as accurate

Some tracks could not be verified as accurate

End of status report


FLAC
narod-FLAC


Рип от rocknrollsteve.
В духе Hanoi Rocks - Rolling Stones - Billy Idol - The Quireboys, душевный и ненавязчивый глэм/слиз без лишних кривляний.

Image


Top
 Profile  
 
 
PostPosted: 23 Nov 2009 
Хиппей (support team)
User avatar
Joined: 30 Jul 2007
Posts: 114411
Lоcаtion: Киев (Kyiv, UA)
Age: 46
Name: Andrey
А чяво мп3 нет?

_________________


Top
 Profile E-mail  
 
 
PostPosted: 24 Nov 2009 
Old Time Rock`n`Roll
User avatar
Joined: 23 Jun 2008
Posts: 3477
Lоcаtion: г.Ульяновск
Age: 41
Name: Константин
в доке Неоновые огни вся дискография банды в мп-3 выложена, я подобные посты и там выкладываю, поэтому смысла еще раз 320 дублировать нет.


Top
 Profile  
 
 
PostPosted: 24 Nov 2009 
Пионэръ
User avatar
Joined: 25 Dec 2008
Posts: 25
Age: 41
Name: Cибирский Пень
oldrocker, респект, это одна из моих самых любимых банд! Но мне больше в кайф 89(2-ой) и 90.

_________________
Меня часто приследуют умные мысли, но я всегда БЫСТРЕЕ!


Top
 Profile  
 
Display posts from previous:  Sort by  
Post new topic Reply to topic  [ 4 posts ] 

All times are UTC + 3 hours


Who is online

Users browsing this forum: No registered users and 1 guest


You cannot post new topics in this forum
You cannot reply to topics in this forum
You cannot edit your posts in this forum
You cannot delete your posts in this forum
You cannot post attachments in this forum

Search for:
Яндекс.Метрика
Powered by phpBB © 2000, 2002, 2005, 2007 phpBB Group