\m/ 80's metal \m/

Информационно-аналитический форум "80 см пыли" (In Search We Trust) "У нас никто никуда не спешит"
Me For You - http://me-4u.com
It is currently 23 Jul 2019

All times are UTC + 3 hours

Spoiler
Chat - temporary registration for foreign users (please leave your application here)







Post new topic Reply to topic  [ 4 posts ] 
Author Message
 
PostPosted: 15 Oct 2009 
Хиппей (support team)
User avatar
Joined: 30 Jul 2007
Posts: 113629
Lоcаtion: Киев (Kyiv, UA)
Age: 46
Name: Andrey
TNT - 2007 - The New Territory (japanese edition) [flac]

Image

Genre: Hard & Heavy
Location: Norway
Format: flac(tracks)+cue+log+covers
Size: 390 Mb


Line-up:
Tony Mills : Vocals
Ronni Le Tekrø : Guitars
Victor Borge : Bass
Dag Stokke : Keyboards
Morten "Diesel" Dahl : Drums

    1. A Constitution - 04:15
    2. Substitute - 02:41
    3. Are You Blind? - 03:49
    4. Golden Opportunity - 03:28
    5. Something Special - 03:21
    6. Now We're Talkin' - 03:36
    7. Wild Life - 03:06
    8. Fountain of Love - 04:24
    9. June - 03:27
    10. Can't Go On Without - 03:15
    11. 2 Seconds Away - 03:19
    12. Milestone River - 04:51
    13. Let's Party Mills - 02:11
    14. Don't Come Too Near - 05:21
    15. Harley Davidson (live) - 03:38

    TPT: 54:02

Narod - 1
Narod - 2
Rapid - 1
Rapid - 2
Mega - 1
Mega - 2
MediaFire - 1
MediaFire - 2
Zshare - 1
Zshare - 2
Deposite - 1
Deposite - 2
HotFile - 1
HotFile - 2

Олег Спиралыч попросил перелить архивы.
Источник? Не знаю пока, вечером разберусь.
А ссылки пригодяцца :dance:


spiralarch wrote:
Андрюха, вставь в первый пост:

dBpoweramp Audio Extraction Log
dBpoweramp Release 13.2 Digital Audio Extraction Log from Thursday, 27 August 2009 1:15 AM

Drive & Settings
----------------

Ripping with drive 'H: [PLEXTOR - DVDR PX-716A ]', Drive offset: 30, Overread Lead-in/out: No
AccurateRip: Active, Using C2: Yes, Cache: None, FUA Cache Invalidate: Yes
Pass 1 Drive Speed: Max, Pass 2 Drive Speed: Max
Ultra:: Vary Drive Speed: Yes, Min Passes: 1, Max Passes: 2, Finish After Clean Passes: 1
Bad Sector Re-rip:: Drive Speed: Max, Maximum Re-reads: 34

Encoder: Wave -compression="PCM"
DSP Effects / Actions: -dspeffect1="Multi-CPU Force= -cpu1 -cpu2 -cpu3 -cpu4"

Extraction Log
--------------

Track 1: Ripped LBA 0 to 19163 (4:15) in 1:36. Filename: K:\Audio rips\TNT - The new territory 2007\TNT - [01] A constitution.wav
Secure [Pass 1, Ultra 1 to 1]
CRC32: 3AAB9FFC AccurateRip CRC: 995BB323 [DiscID: 015-001d895c-014f50a9-ce0cd90f-1]

Track 2: Ripped LBA 19163 to 31309 (2:41) in 1:01. Filename: K:\Audio rips\TNT - The new territory 2007\TNT - [02] Substitute.wav
Secure [Pass 1, Ultra 1 to 1]
CRC32: FBBFCD3F AccurateRip CRC: 4A979F9B [DiscID: 015-001d895c-014f50a9-ce0cd90f-2]

Track 3: Ripped LBA 31309 to 48526 (3:49) in 1:27. Filename: K:\Audio rips\TNT - The new territory 2007\TNT - [03] Are you blind?.wav
Secure [Pass 1, Ultra 1 to 1]
CRC32: 10C91165 AccurateRip CRC: D3D93434 [DiscID: 015-001d895c-014f50a9-ce0cd90f-3]

Track 4: Ripped LBA 48526 to 64169 (3:28) in 1:19. Filename: K:\Audio rips\TNT - The new territory 2007\TNT - [04] Golden opportunity.wav
Secure [Pass 1, Ultra 1 to 1]
CRC32: 646347CC AccurateRip CRC: B223A5FB [DiscID: 015-001d895c-014f50a9-ce0cd90f-4]

Track 5: Ripped LBA 64169 to 79291 (3:21) in 1:16. Filename: K:\Audio rips\TNT - The new territory 2007\TNT - [05] Something special.wav
Secure [Pass 1, Ultra 1 to 1]
CRC32: 2837A792 AccurateRip CRC: 4B165B1E [DiscID: 015-001d895c-014f50a9-ce0cd90f-5]

Track 6: Ripped LBA 79291 to 95521 (3:36) in 1:22. Filename: K:\Audio rips\TNT - The new territory 2007\TNT - [06] Now we're talkin'.wav
Secure [Pass 1, Ultra 1 to 1]
CRC32: F44FF8BB AccurateRip CRC: 1B730957 [DiscID: 015-001d895c-014f50a9-ce0cd90f-6]

Track 7: Ripped LBA 95521 to 109529 (3:06) in 1:11. Filename: K:\Audio rips\TNT - The new territory 2007\TNT - [07] Wild life.wav
Secure [Pass 1, Ultra 1 to 1]
CRC32: 9C7BB066 AccurateRip CRC: B7F64BC6 [DiscID: 015-001d895c-014f50a9-ce0cd90f-7]

Track 8: Ripped LBA 109529 to 129386 (4:24) in 1:40. Filename: K:\Audio rips\TNT - The new territory 2007\TNT - [08] Fountain of love.wav
Secure [Pass 1, Ultra 1 to 1]
CRC32: 7E0D7204 AccurateRip CRC: 09BC5AEF [DiscID: 015-001d895c-014f50a9-ce0cd90f-8]

Track 9: Ripped LBA 129386 to 144971 (3:27) in 1:18. Filename: K:\Audio rips\TNT - The new territory 2007\TNT - [09] June.wav
Secure [Pass 1, Ultra 1 to 1]
CRC32: 800A6E37 AccurateRip CRC: 31C6ABA4 [DiscID: 015-001d895c-014f50a9-ce0cd90f-9]

Track 10: Ripped LBA 144971 to 159607 (3:15) in 1:14. Filename: K:\Audio rips\TNT - The new territory 2007\TNT - [10] Can't go on without.wav
Secure [Pass 1, Ultra 1 to 1]
CRC32: 903CA61A AccurateRip CRC: 2E8C4B03 [DiscID: 015-001d895c-014f50a9-ce0cd90f-10]

Track 11: Ripped LBA 159607 to 174561 (3:19) in 1:15. Filename: K:\Audio rips\TNT - The new territory 2007\TNT - [11] 2 seconds away.wav
Secure [Pass 1, Ultra 1 to 1]
CRC32: D7E94580 AccurateRip CRC: 58297314 [DiscID: 015-001d895c-014f50a9-ce0cd90f-11]

Track 12: Ripped LBA 174561 to 196395 (4:51) in 1:50. Filename: K:\Audio rips\TNT - The new territory 2007\TNT - [12] Milestone river.wav
Secure [Pass 1, Ultra 1 to 1]
CRC32: AFD6FC3D AccurateRip CRC: 4C58C0E2 [DiscID: 015-001d895c-014f50a9-ce0cd90f-12]

Track 13: Ripped LBA 196395 to 206240 (2:11) in 0:50. Filename: K:\Audio rips\TNT - The new territory 2007\TNT - [13] Let's party Mills.wav
Secure [Pass 1, Ultra 1 to 1]
CRC32: 5C365C13 AccurateRip CRC: F2E28DC1 [DiscID: 015-001d895c-014f50a9-ce0cd90f-13]

Track 14: Ripped LBA 206240 to 230347 (5:21) in 2:01. Filename: K:\Audio rips\TNT - The new territory 2007\TNT - [14] Don't come too near.wav
Secure [Pass 1, Ultra 1 to 1]
CRC32: 98DC2078 AccurateRip CRC: A220646F [DiscID: 015-001d895c-014f50a9-ce0cd90f-14]

Track 15: Ripped LBA 230347 to 246693 (3:37) in 1:22. Filename: K:\Audio rips\TNT - The new territory 2007\TNT - [15] Harley Davidson [Live].wav
Secure [Pass 1, Ultra 1 to 1]
CRC32: A9D8A202 AccurateRip CRC: D0453676 [DiscID: 015-001d895c-014f50a9-ce0cd90f-15]

--------------

15 Tracks Ripped Securely

в архиве потрэковый флак, куй, основные сканы и прочая бижутерия :umnik:

_________________


Top
 Profile E-mail  
 
 
PostPosted: 15 Oct 2009 
Прокъмитолист
User avatar
Joined: 12 Aug 2007
Posts: 6579
Lоcаtion: Санктъ-Петербуркъ
Age: 51
Name: Олекъ
Scatterbrain wrote:
Источник?

http://minus21grams.blogspot.com/2009/0 ... ition.html
[Password: -21grams]
спасибо, Андрюх! :thanx:

_________________
прокъметол - это музыко, от которово есть прок (ы)


Top
 Profile  
 
 
PostPosted: 15 Oct 2009 
Хиппей (support team)
User avatar
Joined: 30 Jul 2007
Posts: 113629
Lоcаtion: Киев (Kyiv, UA)
Age: 46
Name: Andrey
Ага, значит с бонусами... Спасибо :thanx:

_________________


Top
 Profile E-mail  
 
 
PostPosted: 27 May 2011 
Хиппей (support team)
User avatar
Joined: 30 Jul 2007
Posts: 113629
Lоcаtion: Киев (Kyiv, UA)
Age: 46
Name: Andrey
mirror: MultiUp l Narod

Внутри всё тоже, только нет пароля и всякой лишней шняги :pardon:

_________________


Top
 Profile E-mail  
 
Display posts from previous:  Sort by  
Post new topic Reply to topic  [ 4 posts ] 

All times are UTC + 3 hours


Who is online

Users browsing this forum: No registered users and 1 guest


You cannot post new topics in this forum
You cannot reply to topics in this forum
You cannot edit your posts in this forum
You cannot delete your posts in this forum
You cannot post attachments in this forum

Search for:
Яндекс.Метрика
Powered by phpBB © 2000, 2002, 2005, 2007 phpBB Group