\m/ 80's metal \m/

Информационно-аналитический форум "80 см пыли" (In Search We Trust) "У нас никто никуда не спешит"
Me For You - http://me-4u.com
It is currently 21 Jul 2019

All times are UTC + 3 hours

Spoiler
Chat - temporary registration for foreign users (please leave your application here)







Post new topic Reply to topic  [ 7 posts ] 
Author Message
 
PostPosted: 10 Oct 2009 
Хиппей (support team)
User avatar
Joined: 30 Jul 2007
Posts: 113573
Lоcаtion: Киев (Kyiv, UA)
Age: 46
Name: Andrey
Trizna - 1996 - Need For Speed [ape]

    Image

Genre: Technical Thrash
Location: Russia
Format: ape+cue+log
Size: 310.47 Mb


    1. Every Day, Every Night
    2. I Hate Mondays
    3. Beeru Beer
    4. The Winner Takes It All
    5. Energy Max
    6. Mirror
    7. Simply The Best
    8. Rock-N-Roll
    9. May Be
    10. Life On The Fly
    11. S.O.S. (ABBA cover)

Источник - losslessdvd.moole.ru :thanx:

Narod l UAfile l FileShare l MultiUp

log
Exact Audio Copy V0.99 prebeta 4 from 23. January 2008

Отчёт EAC об извлечении, выполненном 3. января 2009, 13:05

Trizna / Need for speed

Дисковод: Optiarc DVD RW AD-7200S Adapter: 3 ID: 0

Режим чтения : Достоверность
Использование точного потока : Да
Отключение кэша аудио : Да
Использование указателей C2 : Нет

Коррекция смещения при чтении : 48
Способность читать области Lead-in и Lead-out : Нет
Заполнение пропущенных сэмплов тишиной : Да
Удаление блоков с тишиной в начале и конце : Нет
При вычислениях CRC использовались нулевые сэмплы : Да
Интерфейс : Установленный внешний ASPI-интерфейс

Выходной формат : Внутренние WAV-операции
Формат сэмплов : 44.100 Гц; 16 бит; стерео

TOC извлечённого CD

Трек | Старт | Длительность | Начальный сектор | Конечный сектор
---------------------------------------------------------------------
1 | 0:00.00 | 4:14.00 | 0 | 19049
2 | 4:14.00 | 4:19.70 | 19050 | 38544
3 | 8:33.70 | 4:22.55 | 38545 | 58249
4 | 12:56.50 | 4:50.45 | 58250 | 80044
5 | 17:47.20 | 3:32.22 | 80045 | 95966
6 | 21:19.42 | 5:22.45 | 95967 | 120161
7 | 26:42.12 | 4:03.65 | 120162 | 138451
8 | 30:46.02 | 3:54.40 | 138452 | 156041
9 | 34:40.42 | 5:45.23 | 156042 | 181939
10 | 40:25.65 | 4:28.52 | 181940 | 202091
11 | 44:54.42 | 3:53.13 | 202092 | 219579

Характеристики диапазона извлечения и сообщения об ошибках

Выбранный диапазон

Имя файла C:Documents and SettingsАдминистраторРабочий столTrizna - Need for speed.wav

Пиковый уровень 99.9 %
Качество диапазона 100.0 %
CRC копии B164637B
Копирование... OK

Ошибок не произошло

Конец отчёта

_________________


Top
 Profile E-mail  
 
 
PostPosted: 10 Oct 2009 
Thrasher
User avatar
Joined: 07 Oct 2007
Posts: 2760
Lоcаtion: Russia, Moscow
Age: 35
Name: Drunk & Evil
Круто...есть на кассете, а вот дисочек первопресный слыхал, что стоит очень даже неплохо :fingal:

_________________
ВОДКА, БАБЫ И БЛЮЗ / 40° till death... :bodun:
One time we saw some hookers, but when we got closer, we realised it was Mötley Crüe. ©


Top
 Profile  
 
 
PostPosted: 10 Oct 2009 
труъ антисионист
User avatar
Joined: 01 Aug 2007
Posts: 4544
Lоcаtion: Откуда и большинство из нас
Age: 38
Name: Дядя Вова
На мой взгляд говённый альбом, никак не сравнить с первыми демками группы.

_________________
Image
Image


Top
 Profile  
 
 
PostPosted: 14 Oct 2009 
5cm
User avatar
Joined: 24 Feb 2009
Posts: 68
Age: 44
Name: .
Спасибо! :true:


Top
 Profile  
 
 
PostPosted: 03 Aug 2011 
ТрэшЭрос
User avatar
Joined: 18 Jul 2011
Posts: 2303
Lоcаtion: Гулькевичи
Age: 44
Name: Александр
Спасибо за Нашо! :thanx:

_________________
Thrash no trash!!!


Top
 Profile E-mail  
 
 
PostPosted: 03 Aug 2011 
ТрэшЭрос
User avatar
Joined: 18 Jul 2011
Posts: 2303
Lоcаtion: Гулькевичи
Age: 44
Name: Александр
Послушал это... Чавой-та я тхресх не услыхал... Как бе хэви митол вроди... Музыка на любителя-патриота. Мне не очень - на троечку... Жаль :oops:

_________________
Thrash no trash!!!


Top
 Profile E-mail  
 
 
PostPosted: 03 Aug 2011 
Хиппей (support team)
User avatar
Joined: 30 Jul 2007
Posts: 113573
Lоcаtion: Киев (Kyiv, UA)
Age: 46
Name: Andrey
А я еще и сам не слушал :crazy:
По старой памяти, вроде мягкий техно-трэш был :pardon:

_________________


Top
 Profile E-mail  
 
Display posts from previous:  Sort by  
Post new topic Reply to topic  [ 7 posts ] 

All times are UTC + 3 hours


Who is online

Users browsing this forum: No registered users and 1 guest


You cannot post new topics in this forum
You cannot reply to topics in this forum
You cannot edit your posts in this forum
You cannot delete your posts in this forum
You cannot post attachments in this forum

Search for:
Яндекс.Метрика
Powered by phpBB © 2000, 2002, 2005, 2007 phpBB Group