\m/ 80's metal \m/

Информационно-аналитический форум "80 см пыли" (In Search We Trust) "У нас никто никуда не спешит"
Me For You - http://me-4u.com
It is currently 19 Jul 2019

All times are UTC + 3 hours

Spoiler
Chat - temporary registration for foreign users (please leave your application here)







Post new topic Reply to topic  [ 8 posts ] 
Author Message
 
PostPosted: 29 Sep 2009 
А может смените мне статус?..
Joined: 03 Jul 2009
Posts: 877
Lоcаtion: Serbia
Name: Laki
Image

Label: 1989, Major Records
Genre: Power/Heavy Metal
Coutry: UK
Format: Ape + Cue
Size: 227 MB
Scans: Inside archive

Line-up:
Graeme Wyatt - Vocals
Pete Wadeson - Guitars
Phil Gavin - Bass
Johnny Lee Jackson - Drums

1. Killing the World
2. Sanctuary
3. Living on the Edge
4. Speed Thrills
5. Laws of Retaliation
6. Screamin' for Mercy
7. Premonition

CUE
REM GENRE "Heavy Metal"
REM DATE 1989
REM DISCID 56088A07
REM COMMENT "ExactAudioCopy v0.95b4"
PERFORMER "Talion"
TITLE "Killing the World"
FILE "Talion - Killing the World.wav" WAVE
TRACK 01 AUDIO
TITLE "Killing the World"
PERFORMER "Talion"
INDEX 00 00:00:00
INDEX 01 00:00:33
TRACK 02 AUDIO
TITLE "Sanctuary"
PERFORMER "Talion"
INDEX 00 05:22:13
INDEX 01 05:22:50
TRACK 03 AUDIO
TITLE "Living on the Edge"
PERFORMER "Talion"
INDEX 00 10:43:55
INDEX 01 10:46:43
TRACK 04 AUDIO
TITLE "Speed Thrills"
PERFORMER "Talion"
INDEX 00 15:46:70
INDEX 01 15:50:00
TRACK 05 AUDIO
TITLE "Laws of retaliation"
PERFORMER "Talion"
INDEX 00 18:52:38
INDEX 01 18:52:70
TRACK 06 AUDIO
TITLE "Screamin´ for Mercy"
PERFORMER "Talion"
INDEX 00 29:06:43
INDEX 01 29:07:55
TRACK 07 AUDIO
TITLE "Premonition"
PERFORMER "Talion"
INDEX 00 34:01:65
INDEX 01 34:03:38


Image

Image

http://www.megaupload.com/?d=A47UAL7R


Last edited by glory11 on 29 Sep 2009, edited 2 times in total.

Top
 Profile E-mail  
 
 
PostPosted: 29 Sep 2009 
Труъ
User avatar
Joined: 14 Jul 2009
Posts: 158
Lоcаtion: Hell Is Here
Age: 49
Name: Adriano
glory11, Invalid Link !! :cry:


Top
 Profile E-mail  
 
 
PostPosted: 29 Sep 2009 
Генеральный thrasher
User avatar
Joined: 03 Oct 2008
Posts: 3714
Lоcаtion: Ханты-Мансийский АО
Age: 44
Name: Сергей
А вот так:

Megaupload

:true:glory11 Thanks!!!


Top
 Profile  
 
 
PostPosted: 29 Sep 2009 
Труъ
User avatar
Joined: 14 Jul 2009
Posts: 158
Lоcаtion: Hell Is Here
Age: 49
Name: Adriano
thorbeorn, thanks !! :true:
.
glory11, Thank you very much !! :thanx:


Top
 Profile E-mail  
 
 
PostPosted: 29 Sep 2009 
А может смените мне статус?..
Joined: 03 Jul 2009
Posts: 877
Lоcаtion: Serbia
Name: Laki
AdrianSteel wrote:
glory11, Invalid Link !! :cry:


Sorry, it's fixed now :oops:


Top
 Profile E-mail  
 
 
PostPosted: 29 Sep 2009 
Труъ
User avatar
Joined: 14 Jul 2009
Posts: 158
Lоcаtion: Hell Is Here
Age: 49
Name: Adriano
glory11 wrote:
AdrianSteel wrote:
glory11, Invalid Link !! :cry:


Sorry, it's fixed now :oops:




OK, Many Thanx !! :true: :thanx:


Top
 Profile E-mail  
 
 
PostPosted: 29 Sep 2009 
Я набрал 1000 сообщений!
User avatar
Joined: 25 Dec 2008
Posts: 1545
Age: 43
Name: Павел
Glory 11,it's great!Thank you! :true:


Top
 Profile  
 
 
PostPosted: 29 Sep 2009 
Хиппей (support team)
User avatar
Joined: 30 Jul 2007
Posts: 113553
Lоcаtion: Киев (Kyiv, UA)
Age: 46
Name: Andrey
:true: :thanx:

mirror: MultiUp l Narod

_________________


Top
 Profile E-mail  
 
Display posts from previous:  Sort by  
Post new topic Reply to topic  [ 8 posts ] 

All times are UTC + 3 hours


Who is online

Users browsing this forum: No registered users and 1 guest


You cannot post new topics in this forum
You cannot reply to topics in this forum
You cannot edit your posts in this forum
You cannot delete your posts in this forum
You cannot post attachments in this forum

Search for:
Яндекс.Метрика
Powered by phpBB © 2000, 2002, 2005, 2007 phpBB Group