\m/ 80's metal \m/

Информационно-аналитический форум "80 см пыли" (In Search We Trust) "У нас никто никуда не спешит"
Me For You - http://me-4u.com
It is currently 21 Jul 2019

All times are UTC + 3 hours

Spoiler
Chat - temporary registration for foreign users (please leave your application here)







Post new topic Reply to topic  [ 8 posts ] 
Author Message
 
PostPosted: 09 Nov 2008 
дядя Миша
User avatar
Joined: 17 Oct 2008
Posts: 3152
Lоcаtion: USSR
Age: 56
Name: Khy
Teaze[Can] - нужен лось концерта Tour of Japan 1978/
С обложками , желательно в ослике выложить.
мр3 не нужно!!!


Top
 Profile  
 
 
PostPosted: 06 Mar 2011 
Работнечег
User avatar
Joined: 28 Aug 2007
Posts: 5919
Lоcаtion: г. Москва
Age: 30
Name: Дима
Миш уже нашёл или ещё нужно? :oops:


Top
 Profile E-mail  
 
 
PostPosted: 29 Aug 2011 
Хиппей (support team)
User avatar
Joined: 30 Jul 2007
Posts: 113573
Lоcаtion: Киев (Kyiv, UA)
Age: 46
Name: Andrey
Запрос еще актуален? :vic:

_________________


Top
 Profile E-mail  
 
 
PostPosted: 24 Sep 2011 
Работнечег
User avatar
Joined: 28 Aug 2007
Posts: 5919
Lоcаtion: г. Москва
Age: 30
Name: Дима
не так давно, в апреле Миша отвечал мне, что запрос ещё актуален, так что reqs оставляем


Top
 Profile E-mail  
 
 
PostPosted: 15 Feb 2012 
Персональный статус
User avatar
Joined: 29 Sep 2009
Posts: 271
Lоcаtion: Надым
Age: 40
Name: Виталий
Teaze - Tour Of Japan 1978 (FLAC)

Image

1. Rockin' With The Music
2. Lady Killer
3. Come On Hold On
4. Baby Why Can't U
5. On The Loose
6. Open My Eyes
7. Tonite It's Me
8. Boys Nite Out
9. Gonna Have A Good Time Tonite
10. Hot To Trot

CUE
REM GENRE Rock
REM DATE 1978
REM DISCID 7E0B540A
REM COMMENT "ExactAudioCopy v1.0b3"
PERFORMER "Teaze"
TITLE "Tour Of Japan"
FILE "Teaze - Tour Of Japan.flac" WAVE
TRACK 01 AUDIO
TITLE "Rockin' With The Music"
PERFORMER "Teaze"
INDEX 00 00:00:00
INDEX 01 00:00:32
TRACK 02 AUDIO
TITLE "Lady Killer"
PERFORMER "Teaze"
INDEX 01 04:10:37
TRACK 03 AUDIO
TITLE "Come On Hold On"
PERFORMER "Teaze"
INDEX 01 07:34:40
TRACK 04 AUDIO
TITLE "Baby Why Can't You"
PERFORMER "Teaze"
INDEX 01 12:08:07
TRACK 05 AUDIO
TITLE "On The Loose"
PERFORMER "Teaze"
INDEX 01 15:45:37
TRACK 06 AUDIO
TITLE "Open My Eyes"
PERFORMER "Teaze"
INDEX 00 23:02:32
INDEX 01 23:03:12
TRACK 07 AUDIO
TITLE "Tonite It's Me"
PERFORMER "Teaze"
INDEX 01 29:59:37
TRACK 08 AUDIO
TITLE "Boys' Nite Out"
PERFORMER "Teaze"
INDEX 01 33:35:20
TRACK 09 AUDIO
TITLE "Gonna Have A Good Time Tonight"
PERFORMER "Teaze"
INDEX 01 40:41:05
TRACK 10 AUDIO
TITLE "Hot To Trot"
PERFORMER "Teaze"
INDEX 01 44:24:05


LOG
Exact Audio Copy V1.0 beta 3 from 29. August 2011

EAC extraction logfile from 29. December 2011, 19:53

Teaze / Tour Of Japan

Used drive : Optiarc DVD RW AD-7240S Adapter: 0 ID: 2

Read mode : Secure
Utilize accurate stream : Yes
Defeat audio cache : No
Make use of C2 pointers : No

Read offset correction : 48
Overread into Lead-In and Lead-Out : No
Fill up missing offset samples with silence : Yes
Delete leading and trailing silent blocks : No
Null samples used in CRC calculations : Yes
Used interface : Native Win32 interface for Win NT & 2000

Used output format : User Defined Encoder
Selected bitrate : 1024 kBit/s
Quality : High
Add ID3 tag : No
Command line compressor : C:\Program Files (x86)\Exact Audio Copy\FLAC\FLAC.EXE
Additional command line options : -6 -V -T "ARTIST=%artist%" -T "TITLE=%title%" -T "ALBUM=%albumtitle%" -T "DATE=%year%" -T "TRACKNUMBER=%tracknr%" -T "GENRE=%genre%" -T "COMMENT=%comment%" -T "BAND=%albuminterpret%" -T "ALBUMARTIST=%albuminterpret%" -T "COMPOSER=%composer%" %haslyrics%--tag-from-file=LYRICS="%lyricsfile%"%haslyrics% -T "DISCNUMBER=%cdnumber%" -T "TOTALDISCS=%totalcds%" -T "TOTALTRACKS=%numtracks%" %hascover%--picture="%coverfile%"%hascover% %source% -o %dest%


TOC of the extracted CD

Track | Start | Length | Start sector | End sector
---------------------------------------------------------
1 | 0:00.32 | 4:10.05 | 32 | 18786
2 | 4:10.37 | 3:24.03 | 18787 | 34089
3 | 7:34.40 | 4:33.42 | 34090 | 54606
4 | 12:08.07 | 3:37.30 | 54607 | 70911
5 | 15:45.37 | 7:17.50 | 70912 | 103736
6 | 23:03.12 | 6:56.25 | 103737 | 134961
7 | 29:59.37 | 3:35.58 | 134962 | 151144
8 | 33:35.20 | 7:05.60 | 151145 | 183079
9 | 40:41.05 | 3:43.00 | 183080 | 199804
10 | 44:24.05 | 3:56.25 | 199805 | 217529


Range status and errors

Selected range

Filename C:\Users\Glen & Lisa\Desktop\Teaze - Tour Of Japan (1978) [FLAC]\Music\Teaze - Tour Of Japan.wav

Peak level 89.6 %
Extraction speed 5.8 X
Range quality 99.9 %
Copy CRC CE45531C
Copy OK

No errors occurred


AccurateRip summary

Track 1 not present in database
Track 2 not present in database
Track 3 not present in database
Track 4 not present in database
Track 5 not present in database
Track 6 not present in database
Track 7 not present in database
Track 8 not present in database
Track 9 not present in database
Track 10 not present in database

None of the tracks are present in the AccurateRip database

End of status report


spectrum
Image



http://ifolder.ru/28721891

Источник: rockhard-lossless


Top
 Profile E-mail  
 
 
PostPosted: 29 Apr 2012 
Работнечег
User avatar
Joined: 28 Aug 2007
Posts: 5919
Lоcаtion: г. Москва
Age: 30
Name: Дима
Спасибо, Виталий! Запрос закрываем!


Top
 Profile E-mail  
 
 
PostPosted: 30 Apr 2012 
Хиппей (support team)
User avatar
Joined: 30 Jul 2007
Posts: 113573
Lоcаtion: Киев (Kyiv, UA)
Age: 46
Name: Andrey
:thanx:

mirror: MultiUp l Narod

_________________


Top
 Profile E-mail  
 
 
PostPosted: 30 Apr 2012 
Хиппей (support team)
User avatar
Joined: 30 Jul 2007
Posts: 113573
Lоcаtion: Киев (Kyiv, UA)
Age: 46
Name: Andrey
Занятно... http://strutter.moole.ru/394405-teaze-t ... -1978.html :pardon:

_________________


Top
 Profile E-mail  
 
Display posts from previous:  Sort by  
Post new topic Reply to topic  [ 8 posts ] 

All times are UTC + 3 hours


Who is online

Users browsing this forum: No registered users and 1 guest


You cannot post new topics in this forum
You cannot reply to topics in this forum
You cannot edit your posts in this forum
You cannot delete your posts in this forum
You cannot post attachments in this forum

Search for:
Яндекс.Метрика
Powered by phpBB © 2000, 2002, 2005, 2007 phpBB Group