\m/ 80's metal \m/

Информационно-аналитический форум "80 см пыли" (In Search We Trust) "У нас никто никуда не спешит"
Me For You - http://me-4u.com
It is currently 21 Oct 2019

All times are UTC + 3 hours

Spoiler
Chat - temporary registration for foreign users (please leave your application here)







Post new topic Reply to topic  [ 5 posts ] 
Author Message
 
PostPosted: 07 Sep 2009 
труъ антисионист
User avatar
Joined: 01 Aug 2007
Posts: 4544
Lоcаtion: Откуда и большинство из нас
Age: 38
Name: Дядя Вова
Image
Группа: Thunderstorm
Альбом: S.N.A.F.U.
Год: 1989
Стиль: Heavy Metal
Страна: Germany
Формат: Image APE / Log / Cue
Размер: 254 Mb

*******************************************************************************************

Line Up:


Kai Schmitz - Vocals
Simon Simonson - Guitars
Matthias Raue - Keyboards
Barry Murray - Bass
Nigel Glockler - Drums



Tracks:

01 - Screamer
02 - On His Own
03 - Victim Of circumstance
04 - Certain Death
05 - Under The Table
06 - Thunder Machine
07 - The Ballad Of A Patient Man


LOG
Exact Audio Copy V0.99 prebeta 4 from 23. January 2008

EAC extraction logfile from 30. August 2009, 11:00

Thunderstorm / S.N.A.F.U.

Used drive : PIONEER DVD-RW DVR-115D Adapter: 0 ID: 0

Read mode : Secure
Utilize accurate stream : Yes
Defeat audio cache : Yes
Make use of C2 pointers : No

Read offset correction : 48
Overread into Lead-In and Lead-Out : No
Fill up missing offset samples with silence : Yes
Delete leading and trailing silent blocks : No
Null samples used in CRC calculations : Yes
Used interface : Installed external ASPI interface

Used output format : Internal WAV Routines
Sample format : 44.100 Hz; 16 Bit; Stereo


TOC of the extracted CD

Track | Start | Length | Start sector | End sector
---------------------------------------------------------
1 | 0:00.00 | 3:15.50 | 0 | 14674
2 | 3:15.50 | 5:40.50 | 14675 | 40224
3 | 8:56.25 | 5:28.62 | 40225 | 64886
4 | 14:25.12 | 4:56.38 | 64887 | 87124
5 | 19:21.50 | 3:42.37 | 87125 | 103811
6 | 23:04.12 | 6:59.00 | 103812 | 135236
7 | 30:03.12 | 8:59.48 | 135237 | 175709


Range status and errors

Selected range

Filename D:\Thunderstorm\Thunderstorm - S.N.A.F.U..wav

Peak level 99.3 %
Range quality 99.9 %
Copy CRC 53064ACB
Copy OK

No errors occurred

End of status report


===================================DOWNLOAD========================================

Це народная ссылка - Thunderstorm (Ger).rar
А это Мега - http://www.megaupload.com/?d=Y04X3HN7

_________________
Image
Image


Top
 Profile  
 
 
PostPosted: 07 Sep 2009 
Хиппей (support team)
User avatar
Joined: 30 Jul 2007
Posts: 114979
Lоcаtion: Киев (Kyiv, UA)
Age: 46
Name: Andrey
Ура :true:

_________________


Top
 Profile E-mail  
 
 
PostPosted: 08 Sep 2009 
Труъ
User avatar
Joined: 14 Jul 2009
Posts: 158
Lоcаtion: Hell Is Here
Age: 49
Name: Adriano
Many Thanx !! :meloman:


Top
 Profile E-mail  
 
 
PostPosted: 08 Sep 2009 
Персональный статус
Joined: 06 Oct 2007
Posts: 339
Спасибки! :true:


Top
 Profile  
 
 
PostPosted: 30 Sep 2009 
хард н хэвщик (support team)
User avatar
Joined: 02 Jun 2008
Posts: 16881
Lоcаtion: Н.Новгород
Age: 32
Name: Артем
нету ковриков внутри :(


Top
 Profile  
 
Display posts from previous:  Sort by  
Post new topic Reply to topic  [ 5 posts ] 

All times are UTC + 3 hours


Who is online

Users browsing this forum: No registered users and 2 guests


You cannot post new topics in this forum
You cannot reply to topics in this forum
You cannot edit your posts in this forum
You cannot delete your posts in this forum
You cannot post attachments in this forum

Search for:
Яндекс.Метрика
Powered by phpBB © 2000, 2002, 2005, 2007 phpBB Group