\m/ 80's metal \m/

Информационно-аналитический форум "80 см пыли" (In Search We Trust) "У нас никто никуда не спешит"
Me For You - http://me-4u.com
It is currently 23 Oct 2019

All times are UTC + 3 hours

Spoiler
Chat - temporary registration for foreign users (please leave your application here)







Post new topic Reply to topic  [ 12 posts ] 
Author Message
 
PostPosted: 19 Jul 2009 
Труъ
User avatar
Joined: 19 Mar 2009
Posts: 162
Lоcаtion: Калужский край
Age: 45
Name: Alexander
Исполнитель: Tyrus
Название: Masters Of Revenge
Год: 1986
Стиль: Heavy/Power Metal
Страна: USA
Формат: MP3
Качество: 320 кбит/c
Продолжительность: 41:32
Размер: 84,9 Mb

Состав:
Mark Rauseo - guitars, backing vocals
Michael Berardinangelo - guitars, backing vocals
Michael "Tracy" Powers - lead and backing vocals, drums (BlewVein)
Ken Barardinangelo - bass, backing vocals
Bill Butler - keys and effects, backing vocals

Image

Трек-лист:
1. Life Death Mercy 03:40
2. Screams In Vain 03:20
3. Seafaring Evil 04:32
4. Masters Of Revenge 03:07
5. No One Seems To Care 03:27
6. In The Nite 03:59
7. Swords Of The King 04:54
8. Lady Killer 04:59
9. Under Attack 03:19
10. Dark Child 03:12
11. Take Us Away (Bonussong) 03:04

Recorded in '83, but wasn't released until '86.

IG 1019
Reissued on CD by Iron Glory Records in 2001.

Quote:
Скачать: Masters Of Revenge '86


Top
 Profile  
 
 
PostPosted: 19 Jul 2009 
Работнечег
User avatar
Joined: 28 Aug 2007
Posts: 6037
Lоcаtion: г. Москва
Age: 30
Name: Дима
Спасибо, заценим! :thanx:


Top
 Profile E-mail  
 
 
PostPosted: 19 Jul 2009 
Труъ
User avatar
Joined: 19 Mar 2009
Posts: 162
Lоcаtion: Калужский край
Age: 45
Name: Alexander
пожалуйста!
тока перенесите это в "другую букву", а то где остановился, там и запостился :crazy: :dash:


Top
 Profile  
 
 
PostPosted: 19 Jul 2009 
*** Умер ***
User avatar
Joined: 25 Apr 2009
Posts: 2188
Lоcаtion: Санкт-Петербург
Age: 33
Name: Кирилл
:thanx:


Top
 Profile E-mail  
 
 
PostPosted: 04 May 2011 
Я набрал 1000 сообщений!
Joined: 12 Dec 2008
Posts: 1066
Lоcаtion: BULGARIA
Age: 41
Name: DIMITЪR
Вчера нашел альбомчек из НЕТА в APE потреково, сколько реально не знаю ,если хотите могу UPLOAD на MEGA.


Top
 Profile  
 
 
PostPosted: 04 May 2011 
Хиппей (support team)
User avatar
Joined: 30 Jul 2007
Posts: 115023
Lоcаtion: Киев (Kyiv, UA)
Age: 46
Name: Andrey
cryptors wrote:
если хотите могу UPLOAD на MEGA.

Не откажемся (хотим). Давай быстрей :true: :crazy:

_________________


Top
 Profile E-mail  
 
 
PostPosted: 05 May 2011 
Я набрал 1000 сообщений!
Joined: 12 Dec 2008
Posts: 1066
Lоcаtion: BULGARIA
Age: 41
Name: DIMITЪR
TYRUS-Masters Of Revenge (1986) [APE] (tracks)

Attachment:
Front+Inside.jpg
Front+Inside.jpg [ 1.68 MiB | Viewed 164 times ]

Attachment:
Back.jpg
Back.jpg [ 1.13 MiB | Viewed 195 times ]


Attachment:
spectre.jpg
spectre.jpg [ 336.21 KiB | Viewed 156 times ]


log
Exact Audio Copy V0.99 prebeta 5 from 4. May 2009

EAC extraction logfile from 1. September 2010, 20:08

TYRUS / Masters Of Revenge

Used drive : TSSTcorpCDDVDW SH-S223F Adapter: 2 ID: 0

Read mode : Secure
Utilize accurate stream : Yes
Defeat audio cache : Yes
Make use of C2 pointers : No

Read offset correction : 6
Overread into Lead-In and Lead-Out : No
Fill up missing offset samples with silence : Yes
Delete leading and trailing silent blocks : No
Null samples used in CRC calculations : Yes
Used interface : Installed external ASPI interface
Gap handling : Not detected, thus appended to previous track

Used output format : Monkey's Audio Lossless Encoder
Selected bitrate : Fast Lossless Compression
Quality : High
Add ID3 tag : Yes
Command line compressor : D:\===NEWS1===\Monkey's Audio\MAC.exe
Use compression offset : 0


TOC of the extracted CD

Track | Start | Length | Start sector | End sector
---------------------------------------------------------
1 | 0:00.00 | 3:40.44 | 0 | 16543
2 | 3:40.44 | 3:20.66 | 16544 | 31609
3 | 7:01.35 | 4:32.53 | 31610 | 52062
4 | 11:34.13 | 3:07.28 | 52063 | 66115
5 | 14:41.41 | 3:27.74 | 66116 | 81714
6 | 18:09.40 | 3:59.56 | 81715 | 99695
7 | 22:09.21 | 4:54.69 | 99696 | 121814
8 | 27:04.15 | 4:59.35 | 121815 | 144274
9 | 32:03.50 | 3:19.22 | 144275 | 159221
10 | 35:22.72 | 3:12.24 | 159222 | 173645
11 | 38:35.21 | 3:04.03 | 173646 | 187448


Track 1

Filename C:\TYRUS_-_01_-_Life_Death_Mercy__.wav

Peak level 98.8 %
Track quality 100.0 %
Copy CRC 806C1770
Accurately ripped (confidence 3) [94AFEC3A]
Copy OK

Track 2

Filename C:\TYRUS_-_02_-_Screams_In_Vain__.wav

Peak level 98.8 %
Track quality 99.9 %
Copy CRC D141DF18
Accurately ripped (confidence 3) [4850BCB4]
Copy OK

Track 3

Filename C:\TYRUS_-_03_-_Seafaring_Evil__.wav

Peak level 98.8 %
Track quality 100.0 %
Copy CRC EC3B6B06
Accurately ripped (confidence 3) [991A81A0]
Copy OK

Track 4

Filename C:\TYRUS_-_04_-_Masters_Of_Revenge__.wav

Peak level 98.8 %
Track quality 100.0 %
Copy CRC D48325F4
Accurately ripped (confidence 3) [93AE2790]
Copy OK

Track 5

Filename C:\TYRUS_-_05_-_In_The_Nite__.wav

Peak level 98.8 %
Track quality 100.0 %
Copy CRC DDCE9F35
Accurately ripped (confidence 3) [F4293848]
Copy OK

Track 6

Filename C:\TYRUS_-_06_-_Swords_Of_The_King__.wav

Peak level 98.8 %
Track quality 99.9 %
Copy CRC BF6CF130
Accurately ripped (confidence 3) [71049BB8]
Copy OK

Track 7

Filename C:\TYRUS_-_07_-_Lady_Killer__.wav

Peak level 98.8 %
Track quality 100.0 %
Copy CRC F4776BCE
Accurately ripped (confidence 3) [9AB64F97]
Copy OK

Track 8

Filename C:\TYRUS_-_08_-_Under_Attack__.wav

Peak level 98.8 %
Track quality 100.0 %
Copy CRC 884EB714
Accurately ripped (confidence 3) [B50CACC9]
Copy OK

Track 9

Filename C:\TYRUS_-_09_-_Dark_Child__.wav

Peak level 98.8 %
Track quality 100.0 %
Copy CRC 644BB3D3
Accurately ripped (confidence 3) [B5374B13]
Copy OK

Track 10

Filename C:\TYRUS_-_10_-_No_One_Seems_To_Care__.wav

Peak level 98.8 %
Track quality 100.0 %
Copy CRC 5BACCB7E
Accurately ripped (confidence 3) [A8DF9DAA]
Copy OK

Track 11

Filename C:\TYRUS_-_11_-_Take_Us_Away_(Bonus)__.wav

Peak level 98.8 %
Track quality 100.0 %
Copy CRC 929ADAE3
Accurately ripped (confidence 3) [28C2476E]
Copy OK


All tracks accurately ripped

No errors occurred

End of status report


Top
 Profile  
 
 
PostPosted: 05 May 2011 
Хиппей (support team)
User avatar
Joined: 30 Jul 2007
Posts: 115023
Lоcаtion: Киев (Kyiv, UA)
Age: 46
Name: Andrey
Димитар, спасибо! :true:

mirror: MultiUp l Narod

_________________


Top
 Profile E-mail  
 
 
PostPosted: 05 May 2011 
metallpaparazzy
User avatar
Joined: 20 Dec 2009
Posts: 674
Lоcаtion: Днепропетровск
Age: 44
Name: Геннадий
:thanx: такой звэр пригодицоо :true:


Top
 Profile E-mail  
 
 
PostPosted: 05 May 2011 
Прокъмитолист
User avatar
Joined: 12 Aug 2007
Posts: 6628
Lоcаtion: Санктъ-Петербуркъ
Age: 52
Name: Олекъ
:thanx:

_________________
прокъметол - это музыко, от которово есть прок (ы)


Top
 Profile  
 
 
PostPosted: 09 Nov 2011 
Power Metal Maniac
User avatar
Joined: 09 Aug 2008
Posts: 6931
Lоcаtion: Москва
Age: 41
Name: Егор
:thanx:

_________________
Long Live Metal!


Top
 Profile  
 
 
PostPosted: 11 Nov 2011 
Труъ
Joined: 01 Jan 2010
Posts: 118
Lоcаtion: MetaLWarrioR
Name: Сергей
Спасибо!


Top
 Profile E-mail  
 
Display posts from previous:  Sort by  
Post new topic Reply to topic  [ 12 posts ] 

All times are UTC + 3 hours


Who is online

Users browsing this forum: No registered users and 1 guest


You cannot post new topics in this forum
You cannot reply to topics in this forum
You cannot edit your posts in this forum
You cannot delete your posts in this forum
You cannot post attachments in this forum

Search for:
Яндекс.Метрика
Powered by phpBB © 2000, 2002, 2005, 2007 phpBB Group