\m/ 80's metal \m/

Информационно-аналитический форум "80 см пыли" (In Search We Trust) "У нас никто никуда не спешит"
Me For You - http://me-4u.com
It is currently 21 Sep 2019

All times are UTC + 3 hours

Spoiler
Chat - temporary registration for foreign users (please leave your application here)







Post new topic Reply to topic  [ 24 posts ]  Go to page 1, 2  Next
Author Message
 
PostPosted: 03 Jul 2009 
Хиппей (support team)
User avatar
Joined: 30 Jul 2007
Posts: 114411
Lоcаtion: Киев (Kyiv, UA)
Age: 46
Name: Andrey
Talon - 1985/1987 - Never Look Back + Vicious Game

    Image

Genre: Heavy Metal
Location: Germany
Format: flac+cue+log+covers
Size: 492 Mb


Talon - 1985 - Never Look Back

Line-up:
Vocals - Uwe Hoffmann
Guitars - Robert Bobel
Guitars - Uwe Hoffmann
Bass - Andy Hammon
Drums - Hubert Wattenbach

    1. Never Look Back - 03:30
    2. Defence Condition - 02:53
    3. Murder Mile - 04:27
    4. Lost in Reality - 04:18
    5. Diamond Cut Diamond - 03:13
    6. Save Your Breath - 04:11
    7. Running Through the Night - 03:33
    8. Venemous Gods - 03:26
    9. Call it Arsen - 03:55
    10. Fires at Night - 03:27

    TPT: 36:53

    Image

Talon - 1987 - Vicious Game

Line-up:
Vocals - Peter Hader
Guitars - Robert Bobel
Guitars - Uwe Hoffmann
Bass - Andy Hammon
Drums - Tommy Resch

    1. Intro - 01:03
    2. Vicious Game - 03:21
    3. Fever - 03:37
    4. Hopeless Love - 03:31
    5. Sunrise - 03:56
    6. Head for Victory - 03:43
    7. Fight for Justice - 03:36
    8. Kings or Fools - 03:28
    9. Rouch and Ready - 02:51
    10. Push it - 03:32
    11. So Cold - 04:53

    TPT: 37:31

Mega
Narod

"Стимхаммеровский" вариант сплитника.
Зачем было выпускать два альбома на одном диске, спрашивайте у лэйбла :vic:


Released by Bifford from Torrents.ru

log
Отчёт EAC об извлечении, выполненном 18. июня 2009, 13:39 для диска:
Talon / Never look back / Vicious game

Дисковод: ASUS DRW-2014S1 Adapter: 0 ID: 0
Режим чтения: Достоверный (C2: нет, Точный поток: да, Отключение кэша: да)
Коррекция смещения при чтении: 6
Способность читать области Lead-in и Lead-out : Нет

Выходной формат: Внутренние WAV-операции
44.100 Гц; 16 бит; стерео

Другие параметры:
Заполнение пропущенных сэмплов тишиной : Да
Удаление блоков с тишиной в начале и конце : Нет
Установленный внешний ASPI-интерфейс


Характеристики диапазона извлечения и сообщения об ошибках
Выбранный диапазон
Имя файла C:\Music MP3\Talon - Never look back Vicious game.wav

Пиковый уровень 98.3 %
Качество диапазона 100.0 %
CRC 7A188ECE
Копирование... OK

Ошибок не произошло

Конец отчёта

spectrum
Image

_________________


Top
 Profile E-mail  
 
 
PostPosted: 03 Jul 2009 
А может смените мне статус?..
Joined: 03 Jul 2009
Posts: 883
Lоcаtion: Serbia
Name: Laki
Thanks !!


Top
 Profile E-mail  
 
 
PostPosted: 04 Jul 2009 
Пионэръ
User avatar
Joined: 04 Jul 2009
Posts: 48
Lоcаtion: Киев
Age: 52
Name: Vladimir V.V.
и от меня спасибо,
давно искал на СD

_________________
=- HMR - Forever! -=


Top
 Profile E-mail  
 
 
PostPosted: 05 Jul 2009 
Хиппей (support team)
User avatar
Joined: 30 Jul 2007
Posts: 114411
Lоcаtion: Киев (Kyiv, UA)
Age: 46
Name: Andrey
Ага, первый вот-вот должны переиздать.
Правда еще непонятно кто. Мож "ОлдМэтал"... :vic:

_________________


Top
 Profile E-mail  
 
 
PostPosted: 14 Jul 2009 
Анатолий
User avatar
Joined: 18 Oct 2008
Posts: 3531
Lоcаtion: Армавир
Age: 42
Name: Анатолий
Милостивые государи! Если кто скачал этот реликт поделитесь пожалуйста CUE!!!


Top
 Profile E-mail  
 
 
PostPosted: 14 Jul 2009 
Прокъмитолист
User avatar
Joined: 12 Aug 2007
Posts: 6604
Lоcаtion: Санктъ-Петербуркъ
Age: 51
Name: Олекъ
Privateer wrote:
поделитесь пожалуйста CUE!!!

хмм... а в архиве разве нету? :umnik:

куй вам
Code:
REM DISCID 33117915
REM COMMENT "ExactAudioCopy v0.95b4"
PERFORMER "Talon"
TITLE "Never look back / Vicious game"
FILE "Talon - Never look back   Vicious game.wav" WAVE
  TRACK 01 AUDIO
    TITLE "Never look back"
    PERFORMER "Talon"
    INDEX 01 00:00:00
  TRACK 02 AUDIO
    TITLE "Defence condition"
    PERFORMER "Talon"
    INDEX 00 03:25:00
    INDEX 01 03:30:05
  TRACK 03 AUDIO
    TITLE "Murder mile"
    PERFORMER "Talon"
    INDEX 00 06:20:00
    INDEX 01 06:23:62
  TRACK 04 AUDIO
    TITLE "Lost in reality"
    PERFORMER "Talon"
    INDEX 00 10:47:00
    INDEX 01 10:51:00
  TRACK 05 AUDIO
    TITLE "Diamond cut diamond"
    PERFORMER "Talon"
    INDEX 00 15:03:50
    INDEX 01 15:09:60
  TRACK 06 AUDIO
    TITLE "Save your breath"
    PERFORMER "Talon"
    INDEX 00 18:20:25
    INDEX 01 18:23:32
  TRACK 07 AUDIO
    TITLE "Running through the night"
    PERFORMER "Talon"
    INDEX 00 22:30:25
    INDEX 01 22:34:57
  TRACK 08 AUDIO
    TITLE "Venomous gods"
    PERFORMER "Talon"
    INDEX 00 26:04:00
    INDEX 01 26:08:10
  TRACK 09 AUDIO
    TITLE "Call it arson"
    PERFORMER "Talon"
    INDEX 00 29:29:00
    INDEX 01 29:34:47
  TRACK 10 AUDIO
    TITLE "Fires at night"
    PERFORMER "Talon"
    INDEX 00 33:26:00
    INDEX 01 33:30:12
  TRACK 11 AUDIO
    TITLE "Intro"
    PERFORMER "Talon"
    INDEX 00 36:52:00
    INDEX 01 36:57:27
  TRACK 12 AUDIO
    TITLE "Vicious game"
    PERFORMER "Talon"
    INDEX 00 38:00:50
    INDEX 01 38:00:55
  TRACK 13 AUDIO
    TITLE "Fever"
    PERFORMER "Talon"
    INDEX 00 41:19:00
    INDEX 01 41:22:27
  TRACK 14 AUDIO
    TITLE "Hopeless love"
    PERFORMER "Talon"
    INDEX 00 44:57:50
    INDEX 01 45:00:17
  TRACK 15 AUDIO
    TITLE "Sunrise"
    PERFORMER "Talon"
    INDEX 00 48:25:00
    INDEX 01 48:31:22
  TRACK 16 AUDIO
    TITLE "Head for victory"
    PERFORMER "Talon"
    INDEX 00 52:22:25
    INDEX 01 52:27:20
  TRACK 17 AUDIO
    TITLE "Fight for justice"
    PERFORMER "Talon"
    INDEX 00 56:06:25
    INDEX 01 56:10:15
  TRACK 18 AUDIO
    TITLE "Kings or fools"
    PERFORMER "Talon"
    INDEX 00 59:43:25
    INDEX 01 59:47:05
  TRACK 19 AUDIO
    TITLE "Rough and ready"
    PERFORMER "Talon"
    INDEX 00 63:12:25
    INDEX 01 63:15:55
  TRACK 20 AUDIO
    TITLE "Push it"
    PERFORMER "Talon"
    INDEX 00 66:03:25
    INDEX 01 66:07:25
  TRACK 21 AUDIO
    TITLE "So cold"
    PERFORMER "Talon"
    INDEX 00 69:36:25
    INDEX 01 69:40:00

_________________
прокъметол - это музыко, от которово есть прок (ы)


Top
 Profile  
 
 
PostPosted: 14 Jul 2009 
Анатолий
User avatar
Joined: 18 Oct 2008
Posts: 3531
Lоcаtion: Армавир
Age: 42
Name: Анатолий
spiralarch

Олег, ты прожигал этот образ? А то у меня что-то проблемы... EAC пишет, что файл не существует... ошибка в пятой строчке... :fingal:


Top
 Profile E-mail  
 
 
PostPosted: 14 Jul 2009 
Прокъмитолист
User avatar
Joined: 12 Aug 2007
Posts: 6604
Lоcаtion: Санктъ-Петербуркъ
Age: 51
Name: Олекъ
Privateer wrote:
ты прожигал этот образ

я не слушал даже еще. месяца через три спроси :crazy:
пятая строчка - как раз имя файла. отредактируй так, как тебе нравится, Толя. главное, чтобы совпадало с именем твоего вава.

_________________
прокъметол - это музыко, от которово есть прок (ы)


Top
 Profile  
 
 
PostPosted: 14 Jul 2009 
Хиппей (support team)
User avatar
Joined: 30 Jul 2007
Posts: 114411
Lоcаtion: Киев (Kyiv, UA)
Age: 46
Name: Andrey
куй wrote:
FILE "Talon - Never look back   Vicious game.wav" WAVE

По ходу я подправил имя лося, нужно его переименовать вот как в цитате (в куе) :oops:

_________________


Top
 Profile E-mail  
 
 
PostPosted: 14 Jul 2009 
Прокъмитолист
User avatar
Joined: 12 Aug 2007
Posts: 6604
Lоcаtion: Санктъ-Петербуркъ
Age: 51
Name: Олекъ
лося ты можешь переименовывать как хочецо. я, например, вот так его назову, когда руки дойдут: Talon-85-87. главное в куе такую же куйню написать. это же элементарное правило. сколько можно на одни и те же грабли наступать? :crazy:

_________________
прокъметол - это музыко, от которово есть прок (ы)


Top
 Profile  
 
 
PostPosted: 14 Jul 2009 
Хиппей (support team)
User avatar
Joined: 30 Jul 2007
Posts: 114411
Lоcаtion: Киев (Kyiv, UA)
Age: 46
Name: Andrey
spiralarch wrote:
сколько можно на одни и те же грабли наступать? :crazy:

Сейчас Толик ответит, что я ему их постоянно подбрасываю :crazy:

Сорри, но менял и буду менять имена лосей, а то ненавижу непонятные названия. Мне, вообще-то, глубоко пофик, кто и зачем пишет лося на сдр, я то его слушаю с компа :oops:


Хм, или всё же ст0ит оставлять всё, как было изначально скачано? :fingal: Вместе с УРЛами внутри, бестолковыми текстовичками, в которых иногда просят дать денег релизёру или сайту?

_________________


Top
 Profile E-mail  
 
 
PostPosted: 14 Jul 2009 
Анатолий
User avatar
Joined: 18 Oct 2008
Posts: 3531
Lоcаtion: Армавир
Age: 42
Name: Анатолий
Scatterbrain wrote:
Сейчас Толик ответит, что я ему их постоянно подбрасываю :crazy:


Вот же... :nuu: :thor:

Пожалуй лучше оставлять всё как было изначально... :umnik:


Top
 Profile E-mail  
 
 
PostPosted: 15 Jul 2009 
Хиппей (support team)
User avatar
Joined: 30 Jul 2007
Posts: 114411
Lоcаtion: Киев (Kyiv, UA)
Age: 46
Name: Andrey
Privateer wrote:
оставлять всё как было изначально

Ок.
Вот только изначально тоже бывают косяки в названиях, так что лучше буду смотреть в куй и имя файла. Ну и вы тож проверяйте, а то... Грабли
:pardon:

_________________


Top
 Profile E-mail  
 
 
PostPosted: 19 Dec 2010 
metallpaparazzy
User avatar
Joined: 20 Dec 2009
Posts: 674
Lоcаtion: Днепропетровск
Age: 44
Name: Геннадий
Scatterbrain wrote:
Зачем было выпускать два альбома на одном диске, спрашивайте у лэйбла

а это у них такая фишка была, мало того, что 2 в одном, так еще и за пол-цены... оформлены они, конечно, убогенько. :dash: как-то попались 2 первых ЛААЗ РОКИТа в таком издании -- на ковриках одни каталоги :nea: так и не взял из-за этого...


Top
 Profile E-mail  
 
 
PostPosted: 16 Oct 2012 
А может смените мне статус?..
User avatar
Joined: 24 Sep 2012
Posts: 856
Lоcаtion: Нижегородская обл.
Age: 49
Name: Вячеслав
Image

Исполнитель: Talon
Альбом: Never Look Back / Vicious Game
Жанр: Heavy Metal
Страна: Germany (Bayreuth, Bavaria)
Страна-производитель диска: Germany
Лейбл & № Catalog: Steamhammer / SPV04-7552
Формат Аудио: FLAC (Cue/Log/Image)+ All Scans
Продолжительность Звучания Альбома: 01:14:33
Размер Архива: 529 Mb (+ 3% recovery)
Источник (релизер): slayer19

Трэклист:

Never Look Back (1985)

01. Never Look Back 03:30
02. Defence Condition 02:54
03. Murder Mile 04:27
04. Lost In Reality 04:19
05. Diamond Cut Diamond 03:14
06. Save Your Breath 04:11
07. Running Through The Night 03:33
08. Venemous Gods 03:26
09. Call It Arson 03:56
10. Fires At Night 03:27

Vicious Game (1987)

11. Intro 01:03
12. Vicious Game 03:22
13. Fever 03:38
14. Hopeless Love 03:31
15. Sunrise 03:56
16. Head For Victory 03:43
17. Fight For Justice 03:37
18. Kings Or Fools 03:29
19. Rouch And Ready 02:52
20. Push It 03:33
21. So Cold 04:53

"Лог создания рипа"
Exact Audio Copy V1.0 beta 3 from 29. August 2011

Отчёт EAC об извлечении, выполненном 14. октября 2012, 18:15

Talon / Never look back / Vicious game

Дисковод: Optiarc DVD RW AD-7200A Adapter: 0 ID: 0

Режим чтения : Достоверность
Использование точного потока : Да
Отключение кэша аудио : Да
Использование указателей C2 : Нет

Коррекция смещения при чтении : 48
Способность читать области Lead-in и Lead-out : Нет
Заполнение пропущенных сэмплов тишиной : Да
Удаление блоков с тишиной в начале и конце : Нет
При вычислениях CRC использовались нулевые сэмплы : Да
Интерфейс : Встроенный Win32-интерфейс для Win NT/2000

Выходной формат : Пользовательский кодировщик
Выбранный битрейт : 128 kBit/s
Качество : Высокий
Добавление ID3-тега : Нет
Утилита сжатия : C:\Program Files\FLAC\FLAC frontend.exe


TOC извлечённого CD

Трек | Старт | Длительность | Начальный сектор | Конечный сектор
---------------------------------------------------------------------
1 | 0:00.00 | 3:30.05 | 0 | 15754
2 | 3:30.05 | 2:53.57 | 15755 | 28786
3 | 6:23.62 | 4:27.13 | 28787 | 48824
4 | 10:51.00 | 4:18.60 | 48825 | 68234
5 | 15:09.60 | 3:13.47 | 68235 | 82756
6 | 18:23.32 | 4:11.25 | 82757 | 101606
7 | 22:34.57 | 3:33.28 | 101607 | 117609
8 | 26:08.10 | 3:26.37 | 117610 | 133096
9 | 29:34.47 | 3:55.40 | 133097 | 150761
10 | 33:30.12 | 3:27.15 | 150762 | 166301
11 | 36:57.27 | 1:03.28 | 166302 | 171054
12 | 38:00.55 | 3:21.47 | 171055 | 186176
13 | 41:22.27 | 3:37.65 | 186177 | 202516
14 | 45:00.17 | 3:31.05 | 202517 | 218346
15 | 48:31.22 | 3:55.73 | 218347 | 236044
16 | 52:27.20 | 3:42.70 | 236045 | 252764
17 | 56:10.15 | 3:36.65 | 252765 | 269029
18 | 59:47.05 | 3:28.50 | 269030 | 284679
19 | 63:15.55 | 2:51.45 | 284680 | 297549
20 | 66:07.25 | 3:32.50 | 297550 | 313499
21 | 69:40.00 | 4:53.00 | 313500 | 335474


Характеристики диапазона извлечения и сообщения об ошибках

Выбранный диапазон

Имя файла D:\МОИ ФАЙЛЫ\LOSSLESS\slayer19\Talon - Never look back , Vicious game.wav

Пиковый уровень 98.3 %
Скорость извлечения 4.5 X
Качество диапазона 100.0 %
CRC теста 491FCBFA
CRC копии 491FCBFA
Копирование... OK

Ошибок не произошло


AccurateRip: сводка

Трек 1 : извлечено точно (доверие 2) [663621ED] (AR v1)
Трек 2 : извлечено точно (доверие 2) [08662AF9] (AR v1)
Трек 3 : извлечено точно (доверие 2) [952402BC] (AR v1)
Трек 4 : извлечено точно (доверие 2) [6628AD8B] (AR v1)
Трек 5 : извлечено точно (доверие 2) [68F1668A] (AR v1)
Трек 6 : извлечено точно (доверие 2) [DD803319] (AR v1)
Трек 7 : извлечено точно (доверие 2) [236528BE] (AR v1)
Трек 8 : извлечено точно (доверие 2) [94B964BB] (AR v1)
Трек 9 : извлечено точно (доверие 2) [AC303B75] (AR v1)
Трек 10 : извлечено точно (доверие 2) [BF40A0CD] (AR v1)
Трек 11 : извлечено точно (доверие 2) [14627CAA] (AR v1)
Трек 12 : извлечено точно (доверие 2) [988588F0] (AR v1)
Трек 13 : извлечено точно (доверие 2) [B9E21797] (AR v1)
Трек 14 : извлечено точно (доверие 2) [7FB79183] (AR v1)
Трек 15 : извлечено точно (доверие 2) [C67A7A36] (AR v1)
Трек 16 : извлечено точно (доверие 2) [E1A9F99E] (AR v1)
Трек 17 : извлечено точно (доверие 2) [8F01D427] (AR v1)
Трек 18 : извлечено точно (доверие 2) [BD8B2480] (AR v1)
Трек 19 отсутствует в базе данных
Трек 20 отсутствует в базе данных
Трек 21 отсутствует в базе данных

18 трек(и) скопированы точно
3 трек(и) не содержатся в базе AccurateRip

Некоторые треки не прошли проверку на точность

Конец отчёта

---- CUETools DB Plugin V2.1.3

[CTDB TOCID: 3KfTbiEs75OhxYHCst2FKgsVMaY-] disk not present in database, Submit result: 3KfTbiEs75OhxYHCst2FKgsVMaY- has been uploaded


==== Контрольная сумма отчёта 6647F242A649723092EFB3C905C138B75CF933EC896CF0C0F2EA40DE71CF3B46 ====

"Фото"
Image


Скачать: Talon - Never Look Back , Vicious Game (1985.1987) by slayer19.rar

_________________
Image


Top
 Profile E-mail  
 
 
PostPosted: 16 Oct 2012 
А может смените мне статус?..
User avatar
Joined: 25 Mar 2009
Posts: 628
Lоcаtion: Нижний Новгород
Age: 49
Name: Владимир
Не ну просто праздник сегодня какой то!
Слав, а ты сам откуда с области то?...
:drink:


Top
 Profile  
 
 
PostPosted: 14 Mar 2013 
Персональный статус
User avatar
Joined: 11 May 2011
Posts: 421
Lоcаtion: Omsk
Age: 29
Name: Alexander
Немного пришлось пошаманить, чтобы на два альбома разрезать. Любили уж очень раньше сэкономить запихнув два альбома на диск при переиздании.
Спасибо! :thanx:

_________________
Enigma, unholy, ungodly, commander of the regeneration
Insidious and caught, implored by disgrace
Inhumation... The burial of man
Confession... Unify all evil


Top
 Profile E-mail  
 
 
PostPosted: 14 Mar 2013 
Хиппей (support team)
User avatar
Joined: 30 Jul 2007
Posts: 114411
Lоcаtion: Киев (Kyiv, UA)
Age: 46
Name: Andrey
И снова, кста...
:arrow: viewtopic.php?f=193&t=4668 :vic:

_________________


Top
 Profile E-mail  
 
 
PostPosted: 15 Mar 2013 
Хиппей (support team)
User avatar
Joined: 30 Jul 2007
Posts: 114411
Lоcаtion: Киев (Kyiv, UA)
Age: 46
Name: Andrey
:thanx:

mirror: MultiUp l Narod

_________________


Top
 Profile E-mail  
 
 
PostPosted: 16 Mar 2013 
консэрваторъ
User avatar
Joined: 11 Aug 2007
Posts: 17222
Lоcаtion: Псков
Age: 45
Name: Сергей
Scatterbrain wrote:
И снова, кста...

И снова одна тема...

_________________
THRASH 'EM ALL


Top
 Profile E-mail  
 
Display posts from previous:  Sort by  
Post new topic Reply to topic  [ 24 posts ]  Go to page 1, 2  Next

All times are UTC + 3 hours


Who is online

Users browsing this forum: No registered users and 4 guests


You cannot post new topics in this forum
You cannot reply to topics in this forum
You cannot edit your posts in this forum
You cannot delete your posts in this forum
You cannot post attachments in this forum

Search for:
Яндекс.Метрика
Powered by phpBB © 2000, 2002, 2005, 2007 phpBB Group