\m/ 80's metal \m/

Информационно-аналитический форум "80 см пыли" (In Search We Trust) "У нас никто никуда не спешит"
Me For You - http://me-4u.com
It is currently 23 Oct 2019

All times are UTC + 3 hours

Spoiler
Chat - temporary registration for foreign users (please leave your application here)







Post new topic Reply to topic  [ 1 post ] 
Author Message
 
PostPosted: 29 Jun 2009 
Хиппей (support team)
User avatar
Joined: 30 Jul 2007
Posts: 115032
Lоcаtion: Киев (Kyiv, UA)
Age: 46
Name: Andrey
Tyran' Pace - 1998 - Take A Seat In The High Row

    Image

Genre: Power Metal
Location: Germany
Format: flac+cue+log+covers
Size: 300 Mb


Line-up:
Michael Dees - vocals
Fabian Schwarz - guitar
Jochen Issing - bass
Rьz Lцser - drums
Alex Schmidt - keyboards

    1. The Day Before the Day After - 04:04
    2. Gone with the Secret - 03:50
    3. Motor of Society - 04:25
    4. Answers - 03:10
    5. Follow Me - 03:55
    6. A Penny for Your Thoughts - 02:27
    7. Your Second Me - 02:43
    8. This Story - 03:13
    9. Lake of Shit - 02:34
    10. Eternity - 02:51
    11. Feeling vs Time - 06:42

    TPT: 40:00

Mega
Narod

Ripped by EG Power

log
Exact Audio Copy V0.99 prebeta 4 from 23. January 2008

Отчёт EAC об извлечении, выполненном 19. августа 2008, 19:20

Tyran Pace / Take A Seat In The High Row

Дисковод: TEAC DV-W516GB Adapter: 0 ID: 2

Режим чтения : Достоверность
Использование точного потока : Да
Отключение кэша аудио : Да
Использование указателей C2 : Нет

Коррекция смещения при чтении : 12
Способность читать области Lead-in и Lead-out : Нет
Заполнение пропущенных сэмплов тишиной : Да
Удаление блоков с тишиной в начале и конце : Нет
При вычислениях CRC использовались нулевые сэмплы : Нет
Интерфейс : Встроенный Win32-интерфейс для Win NT/2000

Выходной формат : Пользовательский кодировщик
Выбранный битрейт : 768 kBit/s
Качество : Высокий
Добавление ID3-тэга : Нет
Утилита сжатия : C:\Program Files\Exact Audio Copy\FLAC\FLAC.EXE
Дополнительные параметры : -6 -V -T "ARTIST=%a" -T "TITLE=%t" -T "ALBUM=%g" -T "DATE=%y" -T "TRACKNUMBER=%n" -T "GENRE=%m" -T "COMMENT=%e" %s -o %d


TOC извлечённого CD

Трек | Старт | Длительность | Начальный сектор | Конечный сектор
---------------------------------------------------------------------
1 | 0:00.00 | 4:04.21 | 0 | 18320
2 | 4:04.21 | 3:50.48 | 18321 | 35618
3 | 7:54.69 | 4:25.08 | 35619 | 55501
4 | 12:20.02 | 3:10.43 | 55502 | 69794
5 | 15:30.45 | 3:55.59 | 69795 | 87478
6 | 19:26.29 | 2:27.55 | 87479 | 98558
7 | 21:54.09 | 2:42.74 | 98559 | 110782
8 | 24:37.08 | 3:13.24 | 110783 | 125281
9 | 27:50.32 | 2:34.34 | 125282 | 136865
10 | 30:24.66 | 2:51.13 | 136866 | 149703
11 | 33:16.04 | 6:42.60 | 149704 | 179913


Характеристики диапазона извлечения и сообщения об ошибках

Выбранный диапазон

Имя файла D:\Temp\Tyran' Pace 1998\Tyran Pace - Take A Seat In The High Row.wav

Пиковый уровень 97.7 %
Качество диапазона 99.9 %
CRC копии 420267C4
Копирование... OK

Ошибок не произошло


AccurateRip: сводка

Трек 1 нет в базе данных
Трек 2 нет в базе данных
Трек 3 нет в базе данных
Трек 4 нет в базе данных
Трек 5 нет в базе данных
Трек 6 нет в базе данных
Трек 7 нет в базе данных
Трек 8 нет в базе данных
Трек 9 нет в базе данных
Трек 10 нет в базе данных
Трек 11 нет в базе данных

Ни одного трека нет в базе AccurateRip

Конец отчёта

spectrum
Image

_________________


Top
 Profile E-mail  
 
Display posts from previous:  Sort by  
Post new topic Reply to topic  [ 1 post ] 

All times are UTC + 3 hours


Who is online

Users browsing this forum: No registered users and 1 guest


You cannot post new topics in this forum
You cannot reply to topics in this forum
You cannot edit your posts in this forum
You cannot delete your posts in this forum
You cannot post attachments in this forum

Search for:
Яндекс.Метрика
Powered by phpBB © 2000, 2002, 2005, 2007 phpBB Group