\m/ 80's metal \m/

Информационно-аналитический форум "80 см пыли" (In Search We Trust) "У нас никто никуда не спешит"
Me For You - http://me-4u.com
It is currently 21 Jul 2019

All times are UTC + 3 hours

Spoiler
Chat - temporary registration for foreign users (please leave your application here)







Post new topic Reply to topic  [ 8 posts ] 
Author Message
 
PostPosted: 12 Dec 2007 
труъ антисионист
User avatar
Joined: 01 Aug 2007
Posts: 4544
Lоcаtion: Откуда и большинство из нас
Age: 38
Name: Дядя Вова
Image

Группа: Tormentor
Год: 1984
Лейбл: Mausoleum
Стиль: Hard Rock / Heavy Metal
Страна: BELGIUM
Формат: 224 Kbs
Размер: 56 Mb

Настоящий подарок для любителей старой - доброй музыки, а не новой - злой!
Line Up:

Guido Wolfaert - Vocals
Jack Lardot - Guitar
Gabe Puertas - Bass
Joe Puertas - Keyboards
J.P. Gayhe - Drums

Tracklist:

1. No They Ain't Gonna Catch Me 03:36
2. Mean Advice 04:25
3. Icarus 03:51
4. Hell Is For Children 04:01
5. Infernal Downtrip 02:33
6. Goddess Of Love 04:11
7. Night Of Shadows 05:06
8. Recompense 02:45
9. The Joker 04:05

Total playing time 34:33

Ifolder
Rapida

_________________
Image
Image


Top
 Profile  
 
 
PostPosted: 14 Dec 2007 
Почётный металлург
User avatar
Joined: 15 Sep 2007
Posts: 4358
Lоcаtion: Хабаровск
Age: 59
Name: чуть выше
Спасибо, Володенька! Это как раз для меня. Удивлен, что находка исходит от любителя трэша.

_________________
Коль будешь людей ты ослами честить,
тебе человеком меж них не прослыть!
(Саади, персидский поэт, 13в.)


Top
 Profile  
 
 
PostPosted: 14 Dec 2007 
труъ антисионист
User avatar
Joined: 01 Aug 2007
Posts: 4544
Lоcаtion: Откуда и большинство из нас
Age: 38
Name: Дядя Вова
Ну я так сказать, такими вещами никогда не брегзал)))

_________________
Image
Image


Top
 Profile  
 
 
PostPosted: 17 Dec 2007 
Почётный металлург
User avatar
Joined: 15 Sep 2007
Posts: 4358
Lоcаtion: Хабаровск
Age: 59
Name: чуть выше
Прости за борзость, а случаем полностью коверов нема?

_________________
Коль будешь людей ты ослами честить,
тебе человеком меж них не прослыть!
(Саади, персидский поэт, 13в.)


Top
 Profile  
 
 
PostPosted: 17 Dec 2007 
труъ антисионист
User avatar
Joined: 01 Aug 2007
Posts: 4544
Lоcаtion: Откуда и большинство из нас
Age: 38
Name: Дядя Вова
К сожалению нема :(

_________________
Image
Image


Top
 Profile  
 
 
PostPosted: 03 Nov 2013 
\m/ 80 см сала \m/
User avatar
Joined: 12 Mar 2012
Posts: 2590
Age: 26
Name: Nick
Tormentor - Goddess of Love (1984) by SHI (MMT)

_________________
1990 AUROPHON BRAINSTORM (Germany) - lossless
1994 MAUSOLEUM CLASSIX (Belgium-Germany) - lossless
1998 VA - GRIM HARVEST - Complete Metal Massacre Volumes I-XII


Top
 Profile  
 
 
PostPosted: 04 Nov 2013 
Хиппей (support team)
User avatar
Joined: 30 Jul 2007
Posts: 113573
Lоcаtion: Киев (Kyiv, UA)
Age: 46
Name: Andrey
:thanx:

mirror: Narod l M-Cloud

scans
ImageImage
ImageImage

log
Exact Audio Copy V1.0 beta 2 from 29. April 2011

EAC extraction logfile from 14. September 2011, 10:54

Tormentor / Goddess Of Love

Used drive : HL-DT-STDVDRAM GT20N Adapter: 0 ID: 0

Read mode : Secure
Utilize accurate stream : Yes
Defeat audio cache : Yes
Make use of C2 pointers : No

Read offset correction : 667
Overread into Lead-In and Lead-Out : No
Fill up missing offset samples with silence : Yes
Delete leading and trailing silent blocks : No
Null samples used in CRC calculations : Yes
Used interface : Installed external ASPI interface

Used output format : Internal WAV Routines
Sample format : 44.100 Hz; 16 Bit; Stereo


TOC of the extracted CD

Track | Start | Length | Start sector | End sector
---------------------------------------------------------
1 | 0:00.00 | 3:37.62 | 0 | 16336
2 | 3:37.62 | 4:26.28 | 16337 | 36314
3 | 8:04.15 | 3:53.25 | 36315 | 53814
4 | 11:57.40 | 4:01.15 | 53815 | 71904
5 | 15:58.55 | 2:32.05 | 71905 | 83309
6 | 18:30.60 | 4:09.42 | 83310 | 102026
7 | 22:40.27 | 5:07.13 | 102027 | 125064
8 | 27:47.40 | 2:46.50 | 125065 | 137564
9 | 30:34.15 | 4:05.72 | 137565 | 156011


Range status and errors

Selected range

Filename D:\EAC\Tormentor - Goddess Of Love\Tormentor - Goddess Of Love.wav

Peak level 99.4 %
Extraction speed 3.6 X
Range quality 100.0 %
Test CRC 438E686B
Copy CRC 438E686B
Copy OK

No errors occurred


AccurateRip summary

Track 1 not present in database
Track 2 not present in database
Track 3 not present in database
Track 4 not present in database
Track 5 not present in database
Track 6 not present in database
Track 7 not present in database
Track 8 not present in database
Track 9 not present in database

None of the tracks are present in the AccurateRip database

End of status report

log
REM GENRE "Heavy Metal"
REM DATE 1984
REM DISCID 79082009
REM COMMENT "ExactAudioCopy v1.0b2"
PERFORMER "Tormentor"
TITLE "Goddess Of Love"
FILE "Tormentor - Goddess Of Love.wav" WAVE
TRACK 01 AUDIO
TITLE "No They Ain't Gonna Catch Me"
PERFORMER "Tormentor"
INDEX 01 00:00:00
TRACK 02 AUDIO
TITLE "Mean Advice"
PERFORMER "Tormentor"
INDEX 00 03:35:15
INDEX 01 03:37:62
TRACK 03 AUDIO
TITLE "Icarus"
PERFORMER "Tormentor"
INDEX 00 08:01:32
INDEX 01 08:04:15
TRACK 04 AUDIO
TITLE "Hell Is For Children"
PERFORMER "Tormentor"
INDEX 00 11:55:25
INDEX 01 11:57:40
TRACK 05 AUDIO
TITLE "Infernal Downtrip"
PERFORMER "Tormentor"
INDEX 00 15:56:32
INDEX 01 15:58:55
TRACK 06 AUDIO
TITLE "Goddess Of Love"
PERFORMER "Tormentor"
INDEX 01 18:30:60
TRACK 07 AUDIO
TITLE "Night Of Shadows"
PERFORMER "Tormentor"
INDEX 00 22:38:37
INDEX 01 22:40:27
TRACK 08 AUDIO
TITLE "Recompence"
PERFORMER "Tormentor"
INDEX 00 27:46:10
INDEX 01 27:47:40
TRACK 09 AUDIO
TITLE "The Joker"
PERFORMER "Tormentor"
INDEX 00 30:32:32
INDEX 01 30:34:15

_________________


Top
 Profile E-mail  
 
 
PostPosted: 05 Nov 2013 
Хиппей (support team)
User avatar
Joined: 30 Jul 2007
Posts: 113573
Lоcаtion: Киев (Kyiv, UA)
Age: 46
Name: Andrey
Более чем средненький альбомчик в стиле Hard & Heavy. Но всё равно слушается приятно :meloman:
Голос у вокалиста оригинальный. Одновременно напоминает Нодди Холдера и Блэки Лоулесса.
Звучит альбом, кстати, весьма качественно :dance:

6/10

Здесь http://www.metal-archives.com/bands/Tormentor/58237 стиль указан как "Heavy/Power Metal". Брехня. Ни капли паэура :pardon:

_________________


Top
 Profile E-mail  
 
Display posts from previous:  Sort by  
Post new topic Reply to topic  [ 8 posts ] 

All times are UTC + 3 hours


Who is online

Users browsing this forum: No registered users and 2 guests


You cannot post new topics in this forum
You cannot reply to topics in this forum
You cannot edit your posts in this forum
You cannot delete your posts in this forum
You cannot post attachments in this forum

Search for:
Яндекс.Метрика
Powered by phpBB © 2000, 2002, 2005, 2007 phpBB Group