\m/ 80's metal \m/

Информационно-аналитический форум "80 см пыли" (In Search We Trust) "У нас никто никуда не спешит"
Me For You - http://me-4u.com
It is currently 21 Sep 2019

All times are UTC + 3 hours

Spoiler
Chat - temporary registration for foreign users (please leave your application here)







Post new topic Reply to topic  [ 17 posts ] 
Author Message
 
PostPosted: 24 Mar 2009 
Труъ
User avatar
Joined: 12 Aug 2008
Posts: 160
Lоcаtion: Днепропетровск
Age: 54
Name: Геннадий
Ищу в любом качестве.

TEMPEST - Lost In The Storm - 1988 (US)

1. Rock On
2. In His Name
3. Jolt
4. Metal Mission
5. Seek His Face
6. It's Up To You
7. Fall Down
8. Break the Chains
9. Gingus Fang
10. Dancing in the Rain
11. Dancing in the Rain Tool
12. East Vs. West


Top
 Profile E-mail  
 
 
PostPosted: 24 Mar 2009 
хард н хэвщик (support team)
User avatar
Joined: 02 Jun 2008
Posts: 16881
Lоcаtion: Н.Новгород
Age: 32
Name: Артем
так вообще не редкость
альбом бомба!!! к сведению, здесь поет второй вокалист Guardian

здесь альбом в 160. Стырен отсюда

Как скачаешь, отпишись, как качество, потому что я только что послушал свой вариант (не помню, откуда качал) - у меня звук убогий, как-будто рип с пожеванной кассеты


Top
 Profile  
 
 
PostPosted: 24 Mar 2009 
хард н хэвщик (support team)
User avatar
Joined: 02 Jun 2008
Posts: 16881
Lоcаtion: Н.Новгород
Age: 32
Name: Артем
Подожди, ты по-моему снова перепутал трек-лист и название альбома. Убедись сначала, что тебе именно нужно.


Top
 Profile  
 
 
PostPosted: 24 Mar 2009 
Труъ
User avatar
Joined: 12 Aug 2008
Posts: 160
Lоcаtion: Днепропетровск
Age: 54
Name: Геннадий
Да все я правильно спросил.Смотри здесь:
http://girdermusic.com/store/index.php? ... cts_id=956

:dash:

_________________
ROCK N ROLL — не болезнь, а лекарство.Принимаем ежедневно.


Top
 Profile E-mail  
 
 
PostPosted: 06 Jan 2011 
А может смените мне статус?..
User avatar
Joined: 30 Aug 2009
Posts: 824
Lоcаtion: Ачинск, Красноярский край
Age: 33
Name: Стас
[reqs]Tempest - Lost in the Storm (1999)
Image
1. Fall Down 04:21
2. Break the Chains 05:25
3. Rock on 03:08
4. In his Name 04:24
5. Jolt 02:56
6. Metal Mission 03:33
7. Seek his Face 03:38
8. It's up to you 03:39
9. Gingus Fang 00:39
10. Dancing in the Rain 03:41
11. Dancing in the Rain Too! 03:23
12. East vs. West 01:41
13. Radio Interview 06:00

http://www.metal-archives.com/release.php?id=149387

Где-то пробегал этот альбом, но пока я очухался, изчез.


Top
 Profile E-mail  
 
 
PostPosted: 24 Jun 2012 
хард н хэвщик (support team)
User avatar
Joined: 02 Jun 2008
Posts: 16881
Lоcаtion: Н.Новгород
Age: 32
Name: Артем
Tempest - Eye of the Storm можно взять в 320kbps на cassette-tapes-what.blogspot.com


Top
 Profile  
 
 
PostPosted: 25 Jun 2012 
Хиппей (support team)
User avatar
Joined: 30 Jul 2007
Posts: 114411
Lоcаtion: Киев (Kyiv, UA)
Age: 46
Name: Andrey
:dance:

_________________


Top
 Profile E-mail  
 
 
PostPosted: 25 Jun 2012 
А может смените мне статус?..
User avatar
Joined: 30 Aug 2009
Posts: 824
Lоcаtion: Ачинск, Красноярский край
Age: 33
Name: Стас
100998 wrote:
[reqs]Tempest - Lost in the Storm (1999)

спомнил.
http://heavenhardrock.blogspot.com/2010 ... -1999.html


Top
 Profile E-mail  
 
 
PostPosted: 25 Jun 2012 
Хиппей (support team)
User avatar
Joined: 30 Jul 2007
Posts: 114411
Lоcаtion: Киев (Kyiv, UA)
Age: 46
Name: Andrey
:dance:

_________________


Top
 Profile E-mail  
 
 
PostPosted: 26 Jun 2012 
Хиппей (support team)
User avatar
Joined: 30 Jul 2007
Posts: 114411
Lоcаtion: Киев (Kyiv, UA)
Age: 46
Name: Andrey
McKagan wrote:
альбом бомба!!!

McKagan wrote:
Tempest - Eye of the Storm

...и таки ж так и есть :true: :true: :true:
Первородный хардынхэви-глэм со всеми нужными и полезными прибамбасами и без лишних понтов :meloman:

9/10

mirror: MultiUp l M-Fire l Narod

_________________


Top
 Profile E-mail  
 
 
PostPosted: 26 Jun 2012 
Хиппей (support team)
User avatar
Joined: 30 Jul 2007
Posts: 114411
Lоcаtion: Киев (Kyiv, UA)
Age: 46
Name: Andrey
100998 wrote:
Tempest - Lost in the Storm

Жуть качество звука...
http://www.divinemetaldistro.com/index. ... ts_id=3765
Насколько понимаю, это сборник ранних песен группы? И точно так же они звучат и на диске? :esel:

Послушал туда-сюда... ну, некоторые вещи хороши, но большинство так себе. Третий сорт не брак :pardon:

mirror: MultiUp l M-Fire l Narod

_________________


Top
 Profile E-mail  
 
 
PostPosted: 26 Jun 2012 
Хиппей (support team)
User avatar
Joined: 30 Jul 2007
Posts: 114411
Lоcаtion: Киев (Kyiv, UA)
Age: 46
Name: Andrey
Tempest - 1987 - A Coming Storm [224]

И дебютный альбом очень хорош. Чуть в более тяжелом и прагматичном стиле (почти traditional heavy). Но так же рвёт на части и от баллады рыдать охота :meloman:

8/10

MultiUp l M-Fire l Narod

Жаль рип фуфло...
Может у кого-то есть оба альбома в лосинках? :oops:

_________________


Top
 Profile E-mail  
 
 
PostPosted: 26 Jun 2012 
Хиппей (support team)
User avatar
Joined: 30 Jul 2007
Posts: 114411
Lоcаtion: Киев (Kyiv, UA)
Age: 46
Name: Andrey
Tempest - 1988 - Eye Of The Storm - http://rutracker.org/forum/viewtopic.php?t=4106509 :losik:

Genre: Hard & Heavy / Glam Hard
Location: USA
Format: ape + cue + log + no scans
Size: 221 Mb


mirror: Depos l Narod l M-Cloud l Drop

log
Exact Audio Copy V0.99 prebeta 4 from 23. January 2008

EAC extraction logfile from 25. June 2012, 19:58

Tempest / Eye of the Storm

Used drive : PIONEER DVD-RW DVR-212 Adapter: 5 ID: 0

Read mode : Secure
Utilize accurate stream : Yes
Defeat audio cache : Yes
Make use of C2 pointers : No

Read offset correction : 48
Overread into Lead-In and Lead-Out : No
Fill up missing offset samples with silence : Yes
Delete leading and trailing silent blocks : No
Null samples used in CRC calculations : Yes
Used interface : Native Win32 interface for Win NT & 2000

Used output format : Internal WAV Routines
Sample format : 44.100 Hz; 16 Bit; Stereo


TOC of the extracted CD

Track | Start | Length | Start sector | End sector
---------------------------------------------------------
1 | 0:00.10 | 5:35.37 | 10 | 25171
2 | 5:35.47 | 3:16.68 | 25172 | 39939
3 | 8:52.40 | 3:25.35 | 39940 | 55349
4 | 12:18.00 | 3:34.22 | 55350 | 71421
5 | 15:52.22 | 3:03.70 | 71422 | 85216
6 | 18:56.17 | 3:22.28 | 85217 | 100394
7 | 22:18.45 | 2:33.37 | 100395 | 111906
8 | 24:52.07 | 3:17.35 | 111907 | 126716
9 | 28:09.42 | 1:58.65 | 126717 | 135631
10 | 30:08.32 | 3:03.53 | 135632 | 149409


Range status and errors

Selected range

Filename D:\temp\Tempest - Eye of the Storm.wav

Peak level 95.6 %
Range quality 100.0 %
Copy CRC 03A3A8FC
Copy OK

No errors occurred


AccurateRip summary

Track 1 accurately ripped (confidence 4) [C836CE4A]
Track 2 accurately ripped (confidence 4) [78545A76]
Track 3 accurately ripped (confidence 4) [8482867A]
Track 4 accurately ripped (confidence 4) [4479BAE4]
Track 5 accurately ripped (confidence 4) [263F2561]
Track 6 accurately ripped (confidence 4) [63B946F4]
Track 7 accurately ripped (confidence 4) [A933C3FF]
Track 8 accurately ripped (confidence 4) [478061E6]
Track 9 accurately ripped (confidence 4) [7214A2B5]
Track 10 accurately ripped (confidence 4) [1C181C0F]

All tracks accurately ripped

End of status report

cue
REM DATE 1988
REM DISCID 7A07C80A
REM COMMENT "ExactAudioCopy v0.99pb4"
PERFORMER "Tempest"
TITLE "Eye of the Storm"
FILE "Tempest - Eye of the Storm.ape" WAVE
TRACK 01 AUDIO
TITLE "Storms/Rock For The Light"
PERFORMER "Tempest"
INDEX 00 00:00:00
INDEX 01 00:00:10
TRACK 02 AUDIO
TITLE "Goin' Nowhere"
PERFORMER "Tempest"
INDEX 00 05:32:20
INDEX 01 05:35:47
TRACK 03 AUDIO
TITLE "Good-Bye"
PERFORMER "Tempest"
INDEX 00 08:50:45
INDEX 01 08:52:40
TRACK 04 AUDIO
TITLE "Let Them In"
PERFORMER "Tempest"
INDEX 00 12:16:47
INDEX 01 12:18:00
TRACK 05 AUDIO
TITLE "True Love (Never Fade Away)"
PERFORMER "Tempest"
INDEX 00 15:48:57
INDEX 01 15:52:22
TRACK 06 AUDIO
TITLE "All For One"
PERFORMER "Tempest"
INDEX 00 18:53:25
INDEX 01 18:56:17
TRACK 07 AUDIO
TITLE "Eye of the Storm"
PERFORMER "Tempest"
INDEX 00 22:17:40
INDEX 01 22:18:45
TRACK 08 AUDIO
TITLE "Lost Without Your Love"
PERFORMER "Tempest"
INDEX 00 24:50:62
INDEX 01 24:52:07
TRACK 09 AUDIO
TITLE "Midnight"
PERFORMER "Tempest"
INDEX 01 28:09:42
TRACK 10 AUDIO
TITLE "U.S.A."
PERFORMER "Tempest"
INDEX 00 30:07:45
INDEX 01 30:08:32

spectrum
Image

_________________


Top
 Profile E-mail  
 
 
PostPosted: 26 Nov 2013 
Персональный статус
User avatar
Joined: 06 Apr 2013
Posts: 466
Lоcаtion: Russia, Orel
Age: 29
Name: Сергей
здесь качество по лучше в смысле что не микрофонная запись Tempest - A Coming Storm/Eye Of The Storm (1987/1988)

http://batzbatz.com/heavy/94725-tempest ... -1988.html


Top
 Profile E-mail  
 
 
PostPosted: 26 Nov 2013 
Хиппей (support team)
User avatar
Joined: 30 Jul 2007
Posts: 114411
Lоcаtion: Киев (Kyiv, UA)
Age: 46
Name: Andrey
Tempest - Eye of the Storm можно взять в 320kbps на cassette-tapes-what.blogspot.com

:shok: ...это засада и заговор... :crazy:

http://cassette-tapes-what.blogspot.com/2013/09/smokers-just-what-air-cleaners-are-able.html

_________________


Top
 Profile E-mail  
 
 
PostPosted: 26 Nov 2013 
Хиппей (support team)
User avatar
Joined: 30 Jul 2007
Posts: 114411
Lоcаtion: Киев (Kyiv, UA)
Age: 46
Name: Andrey
здесь качество по лучше в смысле что не микрофонная запись Tempest - A Coming Storm/Eye Of The Storm (1987/1988)

http://batzbatz.com/heavy/94725-tempest ... -1988.html

Хм, так чуть выше рип с диска :oops:

_________________


Top
 Profile E-mail  
 
 
PostPosted: 05 Jan 2018 
Хиппей (support team)
User avatar
Joined: 30 Jul 2007
Posts: 114411
Lоcаtion: Киев (Kyiv, UA)
Age: 46
Name: Andrey
А чего, реально рип данного альбома с диска равно рип с кассеты? :lloo:
Вернее, так ли уж он звучит плохо? Вот слушать снова и.. норм звучок для как для 88 года :scratch:
Барабаны мож чутка плоские, но с вокалом то как раз всё отлично.

_________________


Top
 Profile E-mail  
 
Display posts from previous:  Sort by  
Post new topic Reply to topic  [ 17 posts ] 

All times are UTC + 3 hours


Who is online

Users browsing this forum: No registered users and 1 guest


You cannot post new topics in this forum
You cannot reply to topics in this forum
You cannot edit your posts in this forum
You cannot delete your posts in this forum
You cannot post attachments in this forum

Search for:
Яндекс.Метрика
Powered by phpBB © 2000, 2002, 2005, 2007 phpBB Group