\m/ 80's metal \m/

Информационно-аналитический форум "80 см пыли" (In Search We Trust) "У нас никто никуда не спешит"
Me For You - http://me-4u.com
It is currently 21 Oct 2019

All times are UTC + 3 hours

Spoiler
Chat - temporary registration for foreign users (please leave your application here)







Post new topic Reply to topic  [ 23 posts ]  Go to page Previous  1, 2
Author Message
 
PostPosted: 27 Oct 2008 
Работнечег
User avatar
Joined: 28 Aug 2007
Posts: 6035
Lоcаtion: г. Москва
Age: 30
Name: Дима
Triarchy - Before Your Very Eyes (1995)

Image

Year: 1995
Style: NWOBHM
Country: UK
Format: mp3,192 kbps
Size: 54 Mb

Image
Image

Line-Up:
Vocals, Bass: Mike Wheeler
Guitar: Brian Galibardy
Drums: Mark Newbold


Tracklist:
1. Hiroshima 06:14
2. Save The Khan 04:33
3. Metal Messiah 05:14
4. Hellhound On My Trail 02:59
5. Sweet Alcohol 04:31
6. Juliet's Tomb 05:21
7. Ghost Of An Emotion 03:29
8. Marionette 03:42
9. Before Your Very Eyes 03:05
Total playing time 39:13

http://ifolder.ru/8523851

Довольно редкий альбом.По-моему все песни были записаны в начале 80-х, но альбом издали только в 1995 году.


Last edited by church on 19 Jun 2014, edited 1 time in total.

Top
 Profile E-mail  
 
 
PostPosted: 26 Apr 2010 
Хиппей (support team)
User avatar
Joined: 30 Jul 2007
Posts: 114979
Lоcаtion: Киев (Kyiv, UA)
Age: 46
Name: Andrey
Entomologist wrote:
сначалоть думал что зверь пореже (морская корова), но морда у нее какая-то бритая
Image

Кажись это морской суслег :shok: Ленивец только флегматичный.

_________________


Top
 Profile E-mail  
 
 
PostPosted: 19 Jun 2014 
Работнечег
User avatar
Joined: 28 Aug 2007
Posts: 6035
Lоcаtion: г. Москва
Age: 30
Name: Дима
Image
Year: 1994
Label: Vinyl Tap Records
Country: UK
Bitrate: Flac + Cue + Log + Covers
Size: 260 Mb

Line-Up:
Mark Newbold - Drums
Brian Galibardy - Guitars
Mike Wheeler - Vocals, Bass
Paul Gunn - Drums
Graham Legg - Guitars


Tracklist:
1. Hiroshima 06:14
2. Save the Khan 04:33
3. Metal Messiah 05:14
4. Hellhound on My Trail 02:59
5. Sweet Alcohol 04:31
6. Juliet's Tomb 05:21
7. Ghost of an Emotion 03:29
8. Marionette 03:42
9. Before Your Very Eyes 03:05

LOG
Exact Audio Copy V0.99 prebeta 5 from 4. May 2009

EAC extraction logfile from 16. June 2014, 22:18

Triarchy / Before Your Very Ears (Compilation)

Used drive : PIONEER DVD-RW DVR-116D Adapter: 0 ID: 0

Read mode : Secure
Utilize accurate stream : Yes
Defeat audio cache : Yes
Make use of C2 pointers : No

Read offset correction : 96
Overread into Lead-In and Lead-Out : No
Fill up missing offset samples with silence : Yes
Delete leading and trailing silent blocks : No
Null samples used in CRC calculations : Yes
Used interface : Native Win32 interface for Win NT & 2000

Used output format : User Defined Encoder
Selected bitrate : 32 kBit/s
Quality : High
Add ID3 tag : No
Command line compressor : C:\Program Files\Exact Audio Copy\Flac\flac.exe
Additional command line options : -6 -V %s


TOC of the extracted CD

Track | Start | Length | Start sector | End sector
---------------------------------------------------------
1 | 0:00.00 | 6:14.50 | 0 | 28099
2 | 6:14.50 | 4:33.10 | 28100 | 48584
3 | 10:47.60 | 5:14.37 | 48585 | 72171
4 | 16:02.22 | 2:59.55 | 72172 | 85651
5 | 19:02.02 | 4:31.60 | 85652 | 106036
6 | 23:33.62 | 5:21.50 | 106037 | 130161
7 | 28:55.37 | 3:29.25 | 130162 | 145861
8 | 32:24.62 | 3:42.60 | 145862 | 162571
9 | 36:07.47 | 3:05.65 | 162572 | 176511


Range status and errors

Selected range

Filename D:\Музыка\Lossless\Triarchy - Before Your Very Ears (Compilation)(1994)\Triarchy - Before Your Very Ears (Compilation).wav

Peak level 95.3 %
Range quality 100.0 %
Copy CRC CBBFCAEF
Copy OK

No errors occurred


AccurateRip summary

Track 1 not present in database
Track 2 not present in database
Track 3 not present in database
Track 4 not present in database
Track 5 not present in database
Track 6 not present in database
Track 7 not present in database
Track 8 not present in database
Track 9 not present in database

None of the tracks are present in the AccurateRip database

End of status report

CUE
REM GENRE "Heavy Metal"
REM DATE 1994
REM DISCID 85093109
REM COMMENT "ExactAudioCopy v0.99pb5"
PERFORMER "Triarchy"
TITLE "Before Your Very Ears (Compilation)"
FILE "Triarchy - Before Your Very Ears (Compilation).flac" WAVE
TRACK 01 AUDIO
TITLE "Hiroshima"
PERFORMER "Triarchy"
INDEX 01 00:00:00
TRACK 02 AUDIO
TITLE "Save The Khan"
PERFORMER "Triarchy"
INDEX 00 06:14:47
INDEX 01 06:14:50
TRACK 03 AUDIO
TITLE "Metal Messiah"
PERFORMER "Triarchy"
INDEX 00 10:47:25
INDEX 01 10:47:60
TRACK 04 AUDIO
TITLE "Hellbound On My Trail"
PERFORMER "Triarchy"
INDEX 01 16:02:22
TRACK 05 AUDIO
TITLE "Sweet Alcohol"
PERFORMER "Triarchy"
INDEX 00 19:01:25
INDEX 01 19:02:02
TRACK 06 AUDIO
TITLE "Juliet's Tomb"
PERFORMER "Triarchy"
INDEX 00 23:33:12
INDEX 01 23:33:62
TRACK 07 AUDIO
TITLE "Ghost Of An Emotion"
PERFORMER "Triarchy"
INDEX 00 28:54:62
INDEX 01 28:55:37
TRACK 08 AUDIO
TITLE "Marionette"
PERFORMER "Triarchy"
INDEX 01 32:24:62
TRACK 09 AUDIO
TITLE "Before Your Very Eyes"
PERFORMER "Triarchy"
INDEX 01 36:07:47


FLAC
Компиляция из демок и синглов группы, выходивших в начале 80-х. Фото самки моржовой в хорошем качестве в архиве :benya:

phpBB [youtube]

phpBB [youtube]


Top
 Profile E-mail  
 
 
PostPosted: 19 Jun 2014 
Прокъмитолист
User avatar
Joined: 12 Aug 2007
Posts: 6628
Lоcаtion: Санктъ-Петербуркъ
Age: 52
Name: Олекъ
:thanx:

_________________
прокъметол - это музыко, от которово есть прок (ы)


Top
 Profile  
 
Display posts from previous:  Sort by  
Post new topic Reply to topic  [ 23 posts ]  Go to page Previous  1, 2

All times are UTC + 3 hours


Who is online

Users browsing this forum: No registered users and 1 guest


You cannot post new topics in this forum
You cannot reply to topics in this forum
You cannot edit your posts in this forum
You cannot delete your posts in this forum
You cannot post attachments in this forum

Search for:
Яндекс.Метрика
Powered by phpBB © 2000, 2002, 2005, 2007 phpBB Group