\m/ 80's metal \m/

Информационно-аналитический форум "80 см пыли" (In Search We Trust) "У нас никто никуда не спешит"
Me For You - http://me-4u.com
It is currently 24 Oct 2019

All times are UTC + 3 hours

Spoiler
Chat - temporary registration for foreign users (please leave your application here)







Post new topic Reply to topic  [ 5 posts ] 
Author Message
 
PostPosted: 15 Jul 2018 
Работнечег
User avatar
Joined: 28 Aug 2007
Posts: 6037
Lоcаtion: г. Москва
Age: 30
Name: Дима
Image

Style: A little bit rock
Year: 1994
Label: Koch International
Country: Germany
Bitrate: Flac + Cue + Log + Covers
Size: 248 Mb

Line-Up:
Thomas Hapke - Keyboards, Drums
Stephan Lessoing - Keyboards
Carsten Schulz - Vocals
Esben Skovenborg - Guitar


Tracklist:
1. Groove
2. Butterflies
3. Give Me A Chance
4. California Nights
5. Coloured Feathers
6. Soldier
7. Blue Day
8. Hold Me Tight
9. Nightmare
10. Yearning

LOG
Exact Audio Copy V0.99 prebeta 5 from 4. May 2009

EAC extraction logfile from 1. July 2018, 16:53

Thomas Hapke / Coloured Feathers

Used drive : PIONEER DVD-RW DVR-221 Adapter: 2 ID: 1

Read mode : Secure
Utilize accurate stream : Yes
Defeat audio cache : Yes
Make use of C2 pointers : No

Read offset correction : 6
Overread into Lead-In and Lead-Out : No
Fill up missing offset samples with silence : Yes
Delete leading and trailing silent blocks : No
Null samples used in CRC calculations : Yes
Used interface : Native Win32 interface for Win NT & 2000

Used output format : User Defined Encoder
Selected bitrate : 32 kBit/s
Quality : High
Add ID3 tag : No
Command line compressor : C:\Program Files\Exact Audio Copy\Flac\flac.exe
Additional command line options : -6 -V %s


TOC of the extracted CD

Track | Start | Length | Start sector | End sector
---------------------------------------------------------
1 | 0:00.00 | 3:47.68 | 0 | 17092
2 | 3:47.68 | 4:09.37 | 17093 | 35804
3 | 7:57.30 | 4:09.43 | 35805 | 54522
4 | 12:06.73 | 3:31.30 | 54523 | 70377
5 | 15:38.28 | 3:59.70 | 70378 | 88372
6 | 19:38.23 | 4:32.30 | 88373 | 108802
7 | 24:10.53 | 4:33.50 | 108803 | 129327
8 | 28:44.28 | 5:04.35 | 129328 | 152162
9 | 33:48.63 | 3:32.10 | 152163 | 168072
10 | 37:20.73 | 5:23.37 | 168073 | 192334


Range status and errors

Selected range

Filename D:\Музыка\Lossless\Thomas Hapke - Coloured Feathers (1994)\Thomas Hapke - Coloured Feathers.wav

Peak level 100.0 %
Range quality 99.9 %
Copy CRC 478E599E
Copy OK

No errors occurred


AccurateRip summary

Track 1 not present in database
Track 2 not present in database
Track 3 not present in database
Track 4 not present in database
Track 5 not present in database
Track 6 not present in database
Track 7 not present in database
Track 8 not present in database
Track 9 not present in database
Track 10 not present in database

None of the tracks are present in the AccurateRip database

End of status report

CUE
REM GENRE Rock
REM DATE 1994
REM DISCID 760A040A
REM COMMENT "ExactAudioCopy v0.99pb5"
PERFORMER "Thomas Hapke"
TITLE "Coloured Feathers"
FILE "Thomas Hapke - Coloured Feathers.flac" WAVE
TRACK 01 AUDIO
TITLE "Groove"
PERFORMER "Thomas Hapke"
INDEX 01 00:00:00
TRACK 02 AUDIO
TITLE "Butterflies"
PERFORMER "Thomas Hapke"
INDEX 01 03:47:68
TRACK 03 AUDIO
TITLE "Give Me A Chance"
PERFORMER "Thomas Hapke"
INDEX 01 07:57:30
TRACK 04 AUDIO
TITLE "California"
PERFORMER "Thomas Hapke"
INDEX 01 12:06:73
TRACK 05 AUDIO
TITLE "Coloured Feathers"
PERFORMER "Thomas Hapke"
INDEX 01 15:38:28
TRACK 06 AUDIO
TITLE "Soldier"
PERFORMER "Thomas Hapke"
INDEX 01 19:38:23
TRACK 07 AUDIO
TITLE "Blue Bay"
PERFORMER "Thomas Hapke"
INDEX 01 24:10:53
TRACK 08 AUDIO
TITLE "Hold Me Tight"
PERFORMER "Thomas Hapke"
INDEX 01 28:44:28
TRACK 09 AUDIO
TITLE "Nightmare"
PERFORMER "Thomas Hapke"
INDEX 01 33:48:63
TRACK 10 AUDIO
TITLE "Yearning"
PERFORMER "Thomas Hapke"
INDEX 01 37:20:73


Yadi

Довольно приятный, но черезчур спокойный альбом. Пойдет для прослушивания перед сном, с девушкой или после 3 часов трэша :crazy:


Top
 Profile E-mail  
 
 
PostPosted: 15 Jul 2018 
Я набрал 1000 сообщений!
Joined: 24 Oct 2009
Posts: 2277
Lоcаtion: Оренбург
Age: 56
Name: Юра
Спасибо Дим! :thanx:

_________________
:dash: I am happy!


Top
 Profile E-mail  
 
 
PostPosted: 31 Jul 2018 
Хиппей (support team)
User avatar
Joined: 30 Jul 2007
Posts: 115032
Lоcаtion: Киев (Kyiv, UA)
Age: 46
Name: Andrey
:thanx:

mirror: Uloz l Drop l Narod l M-Cloud

_________________


Top
 Profile E-mail  
 
 
PostPosted: 31 Jul 2018 
Хиппей (support team)
User avatar
Joined: 30 Jul 2007
Posts: 115032
Lоcаtion: Киев (Kyiv, UA)
Age: 46
Name: Andrey
Акустический неформат :pardon:

Но несколько песенок зацепили :meloman:

_________________


Top
 Profile E-mail  
 
 
PostPosted: 31 Jul 2018 
спирт 100%
User avatar
Joined: 22 Sep 2008
Posts: 4477
Age: 48
Name: Саня
:thanx:


Top
 Profile  
 
Display posts from previous:  Sort by  
Post new topic Reply to topic  [ 5 posts ] 

All times are UTC + 3 hours


Who is online

Users browsing this forum: No registered users and 1 guest


You cannot post new topics in this forum
You cannot reply to topics in this forum
You cannot edit your posts in this forum
You cannot delete your posts in this forum
You cannot post attachments in this forum

Search for:
Яндекс.Метрика
Powered by phpBB © 2000, 2002, 2005, 2007 phpBB Group