\m/ 80's metal \m/

Информационно-аналитический форум "80 см пыли" (In Search We Trust) "У нас никто никуда не спешит"
Me For You - http://me-4u.com
It is currently 18 Oct 2019

All times are UTC + 3 hours

Spoiler
Chat - temporary registration for foreign users (please leave your application here)







Post new topic Reply to topic  [ 1 post ] 
Author Message
 
PostPosted: 12 Feb 2017 
Работнечег
User avatar
Joined: 28 Aug 2007
Posts: 6031
Lоcаtion: г. Москва
Age: 30
Name: Дима
Image

Label: Massacre Records
Genre: Heavy Metal with punk and rock n roll influence
Coutry: Finland
Format: Flac + Log + Cue + Covers
Size: 355 Mb

Line-Up:
DJ Locomotive - Drums, Vocals (Magenta Harvest, Pain Confessor, ex-MyGrain, ex-Tomb of Finland, ex-...and Oceans)
Nick Napalm - Guitars, Vocals (ex-Våld)
Marco the Missile - Vocals, Bass (ex-Altaria)


Tracklist:
1. Say No to Religion 03:53
2. Under Your Skin 03:56
3. Bloodthirst 03:10
4. Snake Eyes 02:53
5. Under a Crimson Sky 03:43
6. Curtains 05:31
7. Redeemer 03:48
8. Backstabber 03:41
9. Tear This Nation Down 02:59
10. Out of Fuel 04:44
11. Outlaws Inc. 05:03

LOG
Exact Audio Copy V0.99 prebeta 5 from 4. May 2009

EAC extraction logfile from 21. January 2017, 18:29

Terrorwheel / Rhythm 'N' Murder

Used drive : PIONEER DVD-RW DVR-221 Adapter: 2 ID: 1

Read mode : Secure
Utilize accurate stream : Yes
Defeat audio cache : Yes
Make use of C2 pointers : No

Read offset correction : 6
Overread into Lead-In and Lead-Out : No
Fill up missing offset samples with silence : Yes
Delete leading and trailing silent blocks : No
Null samples used in CRC calculations : Yes
Used interface : Native Win32 interface for Win NT & 2000

Used output format : User Defined Encoder
Selected bitrate : 32 kBit/s
Quality : High
Add ID3 tag : No
Command line compressor : C:\Program Files\Exact Audio Copy\Flac\flac.exe
Additional command line options : -6 -V %s


TOC of the extracted CD

Track | Start | Length | Start sector | End sector
---------------------------------------------------------
1 | 0:00.00 | 3:53.45 | 0 | 17519
2 | 3:53.45 | 3:56.32 | 17520 | 35251
3 | 7:50.02 | 3:10.74 | 35252 | 49575
4 | 11:01.01 | 2:53.31 | 49576 | 62581
5 | 13:54.32 | 3:43.25 | 62582 | 79331
6 | 17:37.57 | 5:31.73 | 79332 | 104229
7 | 23:09.55 | 3:48.08 | 104230 | 121337
8 | 26:57.63 | 3:41.28 | 121338 | 137940
9 | 30:39.16 | 2:59.73 | 137941 | 151438
10 | 33:39.14 | 4:44.29 | 151439 | 172767
11 | 38:23.43 | 5:03.21 | 172768 | 195513


Range status and errors

Selected range

Filename D:\Музыка\Lossless\Terrorwheel - Rhytm 'N' Murder\Terrorwheel - Rhythm 'N' Murder.wav

Peak level 99.9 %
Range quality 100.0 %
Copy CRC 77BB0137
Copy OK

No errors occurred


AccurateRip summary

Track 1 accurately ripped (confidence 1) [FB9C2FA1]
Track 2 accurately ripped (confidence 1) [8BBCBA23]
Track 3 accurately ripped (confidence 1) [1D832FBA]
Track 4 accurately ripped (confidence 1) [C34FFEB2]
Track 5 accurately ripped (confidence 1) [8B436C23]
Track 6 accurately ripped (confidence 1) [5D60CF99]
Track 7 accurately ripped (confidence 1) [57ACBCE9]
Track 8 accurately ripped (confidence 1) [4C273457]
Track 9 accurately ripped (confidence 1) [C0233105]
Track 10 accurately ripped (confidence 1) [210ED390]
Track 11 accurately ripped (confidence 1) [0BFE2469]

All tracks accurately ripped

End of status report

CUE
REM GENRE "Heavy Metal"
REM DATE 2003
REM DISCID 840A2E0B
REM COMMENT "ExactAudioCopy v0.99pb5"
PERFORMER "Terrorwheel"
TITLE "Rhythm 'N' Murder"
FILE "Terrorwheel - Rhythm 'N' Murder.flac" WAVE
TRACK 01 AUDIO
TITLE "Say No To Religion"
PERFORMER "Terrorwheel"
INDEX 01 00:00:00
TRACK 02 AUDIO
TITLE "Under Your Skin"
PERFORMER "Terrorwheel"
INDEX 01 03:53:45
TRACK 03 AUDIO
TITLE "Bloodthirst"
PERFORMER "Terrorwheel"
INDEX 00 07:48:02
INDEX 01 07:50:02
TRACK 04 AUDIO
TITLE "Snake Eyes"
PERFORMER "Terrorwheel"
INDEX 01 11:01:01
TRACK 05 AUDIO
TITLE "Under A Crimson Sky"
PERFORMER "Terrorwheel"
INDEX 01 13:54:32
TRACK 06 AUDIO
TITLE "Curtains"
PERFORMER "Terrorwheel"
INDEX 00 17:35:57
INDEX 01 17:37:57
TRACK 07 AUDIO
TITLE "Redeemer"
PERFORMER "Terrorwheel"
INDEX 01 23:09:55
TRACK 08 AUDIO
TITLE "Backstabber"
PERFORMER "Terrorwheel"
INDEX 01 26:57:63
TRACK 09 AUDIO
TITLE "Tear This Nation Down"
PERFORMER "Terrorwheel"
INDEX 00 30:37:16
INDEX 01 30:39:16
TRACK 10 AUDIO
TITLE "Out Of Fuel"
PERFORMER "Terrorwheel"
INDEX 01 33:39:14
TRACK 11 AUDIO
TITLE "Outlaws Inc."
PERFORMER "Terrorwheel"
INDEX 00 38:21:43
INDEX 01 38:23:43


Yadi

Этакий утяжеленный вариант Motorhead. Что-то вроде их альбома Inferno. В целом хороший альбом, с несколькими отличнейшими песнями!



Top
 Profile E-mail  
 
Display posts from previous:  Sort by  
Post new topic Reply to topic  [ 1 post ] 

All times are UTC + 3 hours


Who is online

Users browsing this forum: No registered users and 1 guest


You cannot post new topics in this forum
You cannot reply to topics in this forum
You cannot edit your posts in this forum
You cannot delete your posts in this forum
You cannot post attachments in this forum

Search for:
Яндекс.Метрика
Powered by phpBB © 2000, 2002, 2005, 2007 phpBB Group