\m/ 80's metal \m/

Информационно-аналитический форум "80 см пыли" (In Search We Trust) "У нас никто никуда не спешит"
Me For You - http://me-4u.com
It is currently 18 Jul 2019

All times are UTC + 3 hours

Spoiler
Chat - temporary registration for foreign users (please leave your application here)







Post new topic Reply to topic  [ 9 posts ] 
Author Message
 
PostPosted: 21 Oct 2016 
Генеральный thrasher
User avatar
Joined: 03 Oct 2008
Posts: 3714
Lоcаtion: Ханты-Мансийский АО
Age: 44
Name: Сергей
Переиздание единственного полнометражника штатовских трэшеров с бонусами.Думаю понравится Олегу spiralarch и Толе Privateer.Андрюхе и Серёге splatty вряд ли...

Image

Year:1991 (2016 Re-Issue)
Style:Speed/Thrash Metal
Country:U.S.A.
Archive:Flac+Cue+Log+Scans
Source:my CD
Size:525Mb
Label:Dark Symphonies

Tracklist:
01. Re-Emergence of Atlantis 03:45
02. Under the Black Moon 03:59
03. Plan of Observation 05:45
04. New Clear Day 04:39
05. Intro:Terracoustic 02:33
06. I The Beast 06:55
07. Inheritance 05:46
08. Time Corridors of the Planeterrah 06:53
09. Scigoreality 04:26
10. What Was and Will Be Again 06:02
Externally Scarred (demo 1988)
11. Vicious Circles 06:03
12. Gaffinbash 02:54
13. Greed e Bastard 03:08
14. Food for the Ants 03:58
15. The Tale 04:23

"Cue"
REM GENRE "Technical Speed/Thrash Metal"
REM DATE 2016
REM DISCID C210AD0F
REM COMMENT "ExactAudioCopy v1.1"
PERFORMER "Terrahsphere"
TITLE "Third In Order Of The Sun"
FILE "Terrahsphere - Third In Order Of The Sun.flac" WAVE
TRACK 01 AUDIO
TITLE "Re-Emergence Of Atlantis"
PERFORMER "Terrahsphere"
INDEX 01 00:00:00
TRACK 02 AUDIO
TITLE "Under The Black Moon"
PERFORMER "Terrahsphere"
INDEX 01 03:44:72
TRACK 03 AUDIO
TITLE "Plan Of Observation"
PERFORMER "Terrahsphere"
INDEX 01 07:43:36
TRACK 04 AUDIO
TITLE "New Clear Day"
PERFORMER "Terrahsphere"
INDEX 01 13:28:56
TRACK 05 AUDIO
TITLE "Intro: Terracoustic"
PERFORMER "Terrahsphere"
INDEX 01 18:07:20
TRACK 06 AUDIO
TITLE "I The Beast"
PERFORMER "Terrahsphere"
INDEX 01 20:40:19
TRACK 07 AUDIO
TITLE "Inheritance"
PERFORMER "Terrahsphere"
INDEX 01 27:35:24
TRACK 08 AUDIO
TITLE "Time Corridors Of The Planeterrah"
PERFORMER "Terrahsphere"
INDEX 01 33:21:43
TRACK 09 AUDIO
TITLE "Scigoreality"
PERFORMER "Terrahsphere"
INDEX 01 40:15:05
TRACK 10 AUDIO
TITLE "What Was and Will Be Again"
PERFORMER "Terrahsphere"
INDEX 01 44:41:22
TRACK 11 AUDIO
TITLE "Vicious Circles"
PERFORMER "Terrahsphere"
INDEX 01 50:43:08
TRACK 12 AUDIO
TITLE "Gaffinbash"
PERFORMER "Terrahsphere"
INDEX 01 56:46:32
TRACK 13 AUDIO
TITLE "Greed E Bastard"
PERFORMER "Terrahsphere"
INDEX 01 59:40:46
TRACK 14 AUDIO
TITLE "Food for the Ants"
PERFORMER "Terrahsphere"
INDEX 01 62:48:22
TRACK 15 AUDIO
TITLE "The Tale"
PERFORMER "Terrahsphere"
INDEX 01 66:46:04

"Log"
Exact Audio Copy V1.1 from 23. June 2015

Отчёт EAC об извлечении, выполненном 5. июля 2016, 17:55

Terrahsphere / Third In Order Of The Sun

Дисковод: HL-DT-STDVDRAM GTA0N Adapter: 1 ID: 0

Режим чтения : Достоверность
Использование точного потока : Да
Отключение кэша аудио : Да
Использование указателей C2 : Нет

Коррекция смещения при чтении : 102
Способность читать области Lead-in и Lead-out : Нет
Заполнение пропущенных сэмплов тишиной : Да
Удаление блоков с тишиной в начале и конце : Нет
При вычислениях CRC использовались нулевые сэмплы : Да
Интерфейс : Встроенный Win32-интерфейс для Win NT/2000

Выходной формат : Пользовательский кодировщик
Выбранный битрейт : 768 kBit/s
Качество : Высокий
Добавление ID3-тега : Нет
Утилита сжатия : C:\Program Files (x86)\Exact Audio Copy\FLAC\FLAC.EXE
Дополнительные параметры : -6 -V -T "ARTIST=%artist%" -T "TITLE=%title%" -T "ALBUM=%albumtitle%" -T "DATE=%year%" -T "TRACKNUMBER=%tracknr%" -T "GENRE=%genre%" -T "COMMENT=%comment%" -T "BAND=%albuminterpret%" -T "ALBUMARTIST=%albuminterpret%" -T "COMPOSER=%composer%" %haslyrics%--tag-from-file=LYRICS="%lyricsfile%"%haslyrics% -T "DISCNUMBER=%cdnumber%" -T "TOTALDISCS=%totalcds%" -T "TOTALTRACKS=%numtracks%" %hascover%--picture="%coverfile%"%hascover% %source% -o %dest%


TOC извлечённого CD

Трек | Старт | Длительность | Начальный сектор | Конечный сектор
---------------------------------------------------------------------
1 | 0:00.00 | 3:44.72 | 0 | 16871
2 | 3:44.72 | 3:58.39 | 16872 | 34760
3 | 7:43.36 | 5:45.20 | 34761 | 60655
4 | 13:28.56 | 4:38.39 | 60656 | 81544
5 | 18:07.20 | 2:32.74 | 81545 | 93018
6 | 20:40.19 | 6:55.05 | 93019 | 124148
7 | 27:35.24 | 5:46.19 | 124149 | 150117
8 | 33:21.43 | 6:53.37 | 150118 | 181129
9 | 40:15.05 | 4:26.17 | 181130 | 201096
10 | 44:41.22 | 6:01.61 | 201097 | 228232
11 | 50:43.08 | 6:03.24 | 228233 | 255481
12 | 56:46.32 | 2:54.14 | 255482 | 268545
13 | 59:40.46 | 3:07.51 | 268546 | 282621
14 | 62:48.22 | 3:57.57 | 282622 | 300453
15 | 66:46.04 | 4:23.20 | 300454 | 320198


Характеристики диапазона извлечения и сообщения об ошибках

Выбранный диапазон

Имя файла C:\Users\магазин\Music\Terrahsphere - Third In Order Of The Sun.wav

Пиковый уровень 100.0 %
Скорость извлечения 4.4 X
Качество диапазона 99.9 %
CRC копии 7181AFA0
Копирование... OK

Ошибок не произошло


AccurateRip: сводка

Трек 1 отсутствует в базе данных
Трек 2 отсутствует в базе данных
Трек 3 отсутствует в базе данных
Трек 4 отсутствует в базе данных
Трек 5 отсутствует в базе данных
Трек 6 отсутствует в базе данных
Трек 7 отсутствует в базе данных
Трек 8 отсутствует в базе данных
Трек 9 отсутствует в базе данных
Трек 10 отсутствует в базе данных
Трек 11 отсутствует в базе данных
Трек 12 отсутствует в базе данных
Трек 13 отсутствует в базе данных
Трек 14 отсутствует в базе данных
Трек 15 отсутствует в базе данных

Ни одного трека нет в базе AccurateRip

Конец отчёта

---- CUETools DB Plugin V2.1.6

[CTDB TOCID: Noo00QYS37m2LINjUnv1TVNcP4Q-] found
Submit result: Noo00QYS37m2LINjUnv1TVNcP4Q- has been confirmed
Track | CTDB Status
1 | (2/2) Accurately ripped
2 | (2/2) Accurately ripped
3 | (2/2) Accurately ripped
4 | (2/2) Accurately ripped
5 | (2/2) Accurately ripped
6 | (2/2) Accurately ripped
7 | (2/2) Accurately ripped
8 | (2/2) Accurately ripped
9 | (2/2) Accurately ripped
10 | (2/2) Accurately ripped
11 | (2/2) Accurately ripped
12 | (2/2) Accurately ripped
13 | (2/2) Accurately ripped
14 | (1/2) Accurately ripped, or (1/2) differs in 2 samples @02:11:19
15 | (2/2) Accurately ripped


Third In Order Of The Sun


Top
 Profile  
 
 
PostPosted: 21 Oct 2016 
Рарник и трушник
User avatar
Joined: 25 Dec 2009
Posts: 8665
Lоcаtion: Москва
Age: 53
Name: Виталий
Спасибо, Сергей! Думаю, мне тоже понравиться. :thanx:


Top
 Profile  
 
 
PostPosted: 21 Oct 2016 
А может смените мне статус?..
User avatar
Joined: 02 Sep 2007
Posts: 580
Lоcаtion: г.Москва, Юго-Запад
Age: 49
Name: Сергей
Безусловно интересует Demo-часть. Спасибо! :thanx:
ЗЫ. Группа не забыта на Западе (регулярно появляется в говнокачестве). Любителям олдскула - не шедевр, но вполне доставляет ... :dance:


Top
 Profile  
 
 
PostPosted: 21 Oct 2016 
Генеральный thrasher
User avatar
Joined: 03 Oct 2008
Posts: 3714
Lоcаtion: Ханты-Мансийский АО
Age: 44
Name: Сергей
регулярно появляется в говнокачестве


Вот эту фразу не понял,Серёга...


Top
 Profile  
 
 
PostPosted: 21 Oct 2016 
А может смените мне статус?..
User avatar
Joined: 02 Sep 2007
Posts: 580
Lоcаtion: г.Москва, Юго-Запад
Age: 49
Name: Сергей
thorbeorn wrote:
Вот эту фразу не понял,Серёга...


Говнокачество - 128 kb/s. На трэшмаге один клоун (по-моему из Хорватии) - выложил в 96 (рингтон твою мать) :benya: Давно правда это было :oldman:


Top
 Profile  
 
 
PostPosted: 21 Oct 2016 
Прокъмитолист
User avatar
Joined: 12 Aug 2007
Posts: 6574
Lоcаtion: Санктъ-Петербуркъ
Age: 51
Name: Олекъ
спасибо, Серёга! :thanx:

_________________
прокъметол - это музыко, от которово есть прок (ы)


Top
 Profile  
 
 
PostPosted: 22 Oct 2016 
консэрваторъ
User avatar
Joined: 11 Aug 2007
Posts: 17049
Lоcаtion: Псков
Age: 45
Name: Сергей
Мультяшный трасх... :benya: улыбнуло...

_________________
THRASH 'EM ALL


Top
 Profile E-mail  
 
 
PostPosted: 22 Oct 2016 
Хиппей (support team)
User avatar
Joined: 30 Jul 2007
Posts: 113537
Lоcаtion: Киев (Kyiv, UA)
Age: 46
Name: Andrey
Знакомая по названию и обложке группа :thanx:
Теперь сбылась почти места - послушаю.

_________________


Top
 Profile E-mail  
 
 
PostPosted: 22 Oct 2016 
Персональный статус
User avatar
Joined: 10 Jun 2009
Posts: 384
Name: jose gomes
:thanx:


Top
 Profile E-mail  
 
Display posts from previous:  Sort by  
Post new topic Reply to topic  [ 9 posts ] 

All times are UTC + 3 hours


Who is online

Users browsing this forum: No registered users and 1 guest


You cannot post new topics in this forum
You cannot reply to topics in this forum
You cannot edit your posts in this forum
You cannot delete your posts in this forum
You cannot post attachments in this forum

Search for:
Яндекс.Метрика
Powered by phpBB © 2000, 2002, 2005, 2007 phpBB Group