\m/ 80's metal \m/

Информационно-аналитический форум "80 см пыли" (In Search We Trust) "У нас никто никуда не спешит"
Me For You - http://me-4u.com
It is currently 21 Jul 2019

All times are UTC + 3 hours

Spoiler
Chat - temporary registration for foreign users (please leave your application here)







Post new topic Reply to topic  [ 7 posts ] 
Author Message
 
PostPosted: 03 Apr 2016 
Работнечег
User avatar
Joined: 28 Aug 2007
Posts: 5919
Lоcаtion: г. Москва
Age: 30
Name: Дима
Image

Label: Shark Records
Genre: Heavy/Thrash Metal
Coutry: Germany
Format: Flac + Log + Cue + Covers
Size: 405 Mb

Line-Up:
Miguel Di Muzio - Bass
Cossy Cossmann - Drums
Thomas Guschelbauer - Guitars
Modesto Vasquez - Guitars
Thomas Laasch - Vocals


Tracklist:
1. Rush 04:44
2. Terrorized 05:18
3. The Kill 05:12
4. Witchchaser (Backwater cover) 06:58
5. Memories of Sadness 05:00
6. Caught in a Maze 07:00
7. Tin Can 04:42
8. Silent Cries 05:50
9. Shadow Dancer 04:50
10. Living with Reality 08:20

LOG
Exact Audio Copy V0.99 prebeta 5 from 4. May 2009

EAC extraction logfile from 9. March 2016, 19:54

Tai Pan / Slow Death

Used drive : PIONEER DVD-RW DVR-221 Adapter: 2 ID: 1

Read mode : Secure
Utilize accurate stream : Yes
Defeat audio cache : Yes
Make use of C2 pointers : No

Read offset correction : 6
Overread into Lead-In and Lead-Out : No
Fill up missing offset samples with silence : Yes
Delete leading and trailing silent blocks : No
Null samples used in CRC calculations : Yes
Used interface : Native Win32 interface for Win NT & 2000

Used output format : User Defined Encoder
Selected bitrate : 32 kBit/s
Quality : High
Add ID3 tag : No
Command line compressor : C:\Program Files\Exact Audio Copy\Flac\flac.exe
Additional command line options : -6 -V %s


TOC of the extracted CD

Track | Start | Length | Start sector | End sector
---------------------------------------------------------
1 | 0:00.50 | 4:49.00 | 50 | 21724
2 | 4:49.50 | 5:25.00 | 21725 | 46099
3 | 10:14.50 | 5:05.00 | 46100 | 68974
4 | 15:19.50 | 6:48.00 | 68975 | 99574
5 | 22:07.50 | 4:47.00 | 99575 | 121099
6 | 26:54.50 | 6:50.00 | 121100 | 151849
7 | 33:44.50 | 4:31.00 | 151850 | 172174
8 | 38:15.50 | 5:46.00 | 172175 | 198124
9 | 44:01.50 | 4:49.00 | 198125 | 219799
10 | 48:50.50 | 8:32.55 | 219800 | 258254


Range status and errors

Selected range

Filename D:\Музыка\Lossless\Tai Pan - Slow Death (1995)\Tai Pan - Slow Death.wav

Peak level 99.5 %
Range quality 100.0 %
Copy CRC 3FCBB7B1
Copy OK

No errors occurred


AccurateRip summary

Track 1 accurately ripped (confidence 2) [1DB52F2B]
Track 2 accurately ripped (confidence 2) [11BA8BA3]
Track 3 accurately ripped (confidence 2) [95615EF6]
Track 4 accurately ripped (confidence 2) [54CD96DC]
Track 5 accurately ripped (confidence 2) [26EDA1EC]
Track 6 accurately ripped (confidence 2) [36FCCDEB]
Track 7 accurately ripped (confidence 2) [24724BC6]
Track 8 accurately ripped (confidence 2) [5E3A20B2]
Track 9 accurately ripped (confidence 2) [8E575A8F]
Track 10 accurately ripped (confidence 2) [62E9F932]

All tracks accurately ripped

End of status report

CUE
REM GENRE "Thrash Metal"
REM DATE 1995
REM DISCID 810D730A
REM COMMENT "ExactAudioCopy v0.99pb5"
PERFORMER "Tai Pan"
TITLE "Slow Death"
FILE "Tai Pan - Slow Death.flac" WAVE
TRACK 01 AUDIO
TITLE "Rush"
PERFORMER "Tai Pan"
INDEX 00 00:00:00
INDEX 01 00:00:50
TRACK 02 AUDIO
TITLE "Terrorized"
PERFORMER "Tai Pan"
INDEX 00 04:48:27
INDEX 01 04:49:50
TRACK 03 AUDIO
TITLE "The Kill"
PERFORMER "Tai Pan"
INDEX 00 10:13:50
INDEX 01 10:14:50
TRACK 04 AUDIO
TITLE "Witchchaser"
PERFORMER "Tai Pan"
INDEX 00 15:18:27
INDEX 01 15:19:50
TRACK 05 AUDIO
TITLE "Memories Of Sadness"
PERFORMER "Tai Pan"
INDEX 00 22:06:02
INDEX 01 22:07:50
TRACK 06 AUDIO
TITLE "Caught In A Maze"
PERFORMER "Tai Pan"
INDEX 00 26:52:65
INDEX 01 26:54:50
TRACK 07 AUDIO
TITLE "Tin Can"
PERFORMER "Tai Pan"
INDEX 00 33:42:40
INDEX 01 33:44:50
TRACK 08 AUDIO
TITLE "Silent Cries"
PERFORMER "Tai Pan"
INDEX 00 38:14:00
INDEX 01 38:15:50
TRACK 09 AUDIO
TITLE "Shadow Dancer"
PERFORMER "Tai Pan"
INDEX 00 43:59:20
INDEX 01 44:01:50
TRACK 10 AUDIO
TITLE "Living With Reality"
PERFORMER "Tai Pan"
INDEX 00 48:49:57
INDEX 01 48:50:50


Yadi




Большинство наверное слышало этот отличный альбом, так что в представлении он особо не нуждается! :true:


Top
 Profile E-mail  
 
 
PostPosted: 03 Apr 2016 
Анатолий
User avatar
Joined: 18 Oct 2008
Posts: 3506
Lоcаtion: Армавир
Age: 42
Name: Анатолий
Нихрена себе!!! :shok:

Вот это ЛОСЯРА!!!! А жирный то какой!!!

Спасибо! :thanx: :true:


Top
 Profile E-mail  
 
 
PostPosted: 04 Apr 2016 
Хиппей (support team)
User avatar
Joined: 30 Jul 2007
Posts: 113573
Lоcаtion: Киев (Kyiv, UA)
Age: 46
Name: Andrey
:thanx:

mirror: iFolder l Narod l M-Cloud




Я эти Пинг-Понги путаю... :oops:

_________________


Top
 Profile E-mail  
 
 
PostPosted: 04 Apr 2016 
Хиппей (support team)
User avatar
Joined: 30 Jul 2007
Posts: 113573
Lоcаtion: Киев (Kyiv, UA)
Age: 46
Name: Andrey
church wrote:
Genre: Heavy/Thrash Metal
Coutry: Germany


Хм, а по саунду так типичные англичане с проговым оттенком таким нехилым.
Временами альбом нравится :meloman:
Но общая оценка средняя: 5/10

Опять-таки, Толя оценит, скорее всего, группу гораздо выше :kro:

Скоростных вещей совсем нет. Сплошные среднетемповые и постотоянные сбивки темпо-ритма хоть и радуют (как и вокалист), но всё разно отсутствие целостности и хитовости (даже просто нормального восприятия музыки, не говоря уже о мелодичности и вообще мелодиях как таковых), немного смущает и не даёт мне насладиться работой группы.

_________________


Top
 Profile E-mail  
 
 
PostPosted: 04 Apr 2016 
Хиппей (support team)
User avatar
Joined: 30 Jul 2007
Posts: 113573
Lоcаtion: Киев (Kyiv, UA)
Age: 46
Name: Andrey
Ой... :crazy:

Quote:
Status:
Changed name
Years active: 1981-1994 (as Backwater)

Ага, а Бэквотер я вроде ещё раньше обматерил, начитавшись о них в "Ровеснике" позитива :esel:

_________________


Top
 Profile E-mail  
 
 
PostPosted: 04 Apr 2016 
Хиппей (support team)
User avatar
Joined: 30 Jul 2007
Posts: 113573
Lоcаtion: Киев (Kyiv, UA)
Age: 46
Name: Andrey
Scatterbrain wrote:
Опять-таки, Толя оценит, скорее всего, группу гораздо выше :kro:

Ага, уже оценил давно :arrow: viewtopic.php?p=67354#p67354 :kro:

_________________


Top
 Profile E-mail  
 
 
PostPosted: 05 Apr 2016 
ТрэшЭрос
User avatar
Joined: 18 Jul 2011
Posts: 2303
Lоcаtion: Гулькевичи
Age: 44
Name: Александр
:thanx:

_________________
Thrash no trash!!!


Top
 Profile E-mail  
 
Display posts from previous:  Sort by  
Post new topic Reply to topic  [ 7 posts ] 

All times are UTC + 3 hours


Who is online

Users browsing this forum: No registered users and 2 guests


You cannot post new topics in this forum
You cannot reply to topics in this forum
You cannot edit your posts in this forum
You cannot delete your posts in this forum
You cannot post attachments in this forum

Search for:
Яндекс.Метрика
Powered by phpBB © 2000, 2002, 2005, 2007 phpBB Group